Šta je novo?
Član
Učlanjen(a)
09.05.2011
Poruka
7.549

************************************************************
Order of Chaos (2010) 720p BluRay x264 NOSCREENS
File Size: 3.27 GiB
************************************************************


znxdr.jpg


INFO:
Kod:
General
Complete name                            : Q:\noscr-orde-720p.mkv
Format                                   : Matroska
Format version                           : Version 4 / Version 2
File size                                : 3.27 GiB
Duration                                 : 1h 28mn
Overall bit rate                         : 5 288 Kbps
Encoded date                             : UTC 2014-12-17 14:15:53
Writing application                      : mkvmerge v7.2.0 ('On Every Street') 64bit built on Sep 13 2014 15:52:10
Writing library                          : libebml v1.3.0 + libmatroska v1.4.1
DURATION                                 : 01:28:39

Video
ID                                       : 1
Format                                   : AVC
Format/Info                              : Advanced Video Codec
Format profile                           : High@L4.1
Format settings, CABAC                   : Yes
Format settings, ReFrames                : 5 frames
Codec ID                                 : V_MPEG4/ISO/AVC
Duration                                 : 1h 28mn
Bit rate                                 : 4 327 Kbps
Width                                    : 1 280 pixels
Height                                   : 528 pixels
Display aspect ratio                     : 2.40:1
Frame rate mode                          : Constant
Frame rate                               : 23.976 fps
Color space                              : YUV
Chroma subsampling                       : 4:2:0
Bit depth                                : 8 bits
Scan type                                : Progressive
Bits/(Pixel*Frame)                       : 0.267
Stream size                              : 2.61 GiB (80%)
Writing library                          : x264 core 142 r2491 24e4fed
Language                                 : English
Default                                  : Yes
Forced                                   : No
DURATION                                 : 01:28:39

Audio
ID                                       : 2
Format                                   : DTS
Format/Info                              : Digital Theater Systems
Mode                                     : 16
Format settings, Endianness              : Big
Codec ID                                 : A_DTS
Duration                                 : 1h 28mn
Bit rate mode                            : Constant
Bit rate                                 : 960 Kbps
Channel(s)                               : 6 channels
Channel positions                        : Front: L C R, Side: L R, LFE
Sampling rate                            : 48.0 KHz
Bit depth                                : 24 bits
Compression mode                         : Lossy
Stream size                              : 609 MiB (18%)
Language                                 : English
Default                                  : Yes
Forced                                   : No

iMDB:
Kod:
http://www.imdb.com/title/tt1159721/


noscr-orde-720ppreview.png



Single Extraction | No Password | Interchangeable Links: | Working 100% |

Kod:
http://rapidgator.net/file/178e402e8e4c218d412558791dda2dcb/Order.of.Chaos.2010.720p.part1.rar.html
http://rapidgator.net/file/8af088fc2cac2cd9d9ac02f6904d3ee5/Order.of.Chaos.2010.720p.part2.rar.html
http://rapidgator.net/file/eb7d2ba2afc3fd4cd7fc6f9c956321c2/Order.of.Chaos.2010.720p.part3.rar.html
http://rapidgator.net/file/11638201a5b8d4f193c184f27c3b804f/Order.of.Chaos.2010.720p.part4.rar.html

http://uploaded.net/file/a1x5pqg1/Order.of.Chaos.2010.720p.part1.rar
http://uploaded.net/file/m6x4h7jy/Order.of.Chaos.2010.720p.part2.rar
http://uploaded.net/file/vko67rst/Order.of.Chaos.2010.720p.part3.rar
http://uploaded.net/file/8xrhykr7/Order.of.Chaos.2010.720p.part4.rar

http://k2s.cc/file/b7a9967b1e047/Order.of.Chaos.2010.720p.part1.rar
http://k2s.cc/file/09c5076c26e47/Order.of.Chaos.2010.720p.part2.rar
http://k2s.cc/file/22a9b7312bd4f/Order.of.Chaos.2010.720p.part3.rar
http://k2s.cc/file/e4bde7c2d15a7/Order.of.Chaos.2010.720p.part4.rar

http://www.nitroflare.com/view/4AED035F41C2D18
http://www.nitroflare.com/view/FF49E8291F91DD3
http://www.nitroflare.com/view/A62E58C254D29B6
http://www.nitroflare.com/view/3C0A00887AE3E94

DOWNLOAD SINGLE LINKS:

Kod:
http://uploaded.net/file/23q7zfy5/noscr-orde-720p.mkv
http://k2s.cc/file/af4d3d0c11724/noscr-orde-720p.mkv
http://www.nitroflare.com/view/FAA8F06D22C776E


:!: PLEASE SEE BEFORE DOWNLOADING

:arrow: Backups Ready. Reply Here When links Dead, I will re-up A.S.A.P
:arrow: Links Are Interchangeable
:arrow: I used to upload on different 4 file host for you
:arrow: No compromise about quality which u get here

DON'T FORGET TO SAY THANKS IF YOU LIKE MY POST !
 
Top