Šta je novo?

Only Belle:A Serial Killer From Selbu (2006)

Učlanjen(a)
25.04.2015
Poruka
394
Only Belle:A Serial Killer From Selbu (2006)

Ashampoo_Snap_2015_09_20_13h23m33s_002.jpg


Only_Belle_avi.jpg


Brynhild Paulsdatter Størset, better known as Belle Gunness, was born in 1859 in Selbu, Norway. After moving to the United States, she became one of the most notorious female serial killers of all time. It is estimated that she murdered between 40 and 70 people, but she was never tried or sentenced for any of these crimes. As the net closed in around her, she arranged her own "death" and disappeared without a trace. Director Anne Berit Vestby, a native of the same small village in Norway, follows Belle's tracks from Selbu to Chicago. Drawing on archival newspapers and featuring authentic photos, the story Vestby recounts turns out to be wilder and more gruesome than you can imagine.

Kod:
http://www.imdb.com/title/tt1537197/

Format : AVI
Format/Info : Audio Video Interleave
File size : 527 MiB
Duration : 52mn 31s
Overall bit rate : 1 402 Kbps

Video
ID : 0
Format : MPEG-4 Visual
Format settings, BVOP : 1
Format settings, QPel : No
Format settings, GMC : No warppoints
Format settings, Matrix : Default (H.263)
Muxing mode : Packed bitstream
Codec ID : DX50
Codec ID/Hint : DivX 5
Duration : 52mn 31s
Bit rate : 1 200 Kbps
Width : 640 pixels
Height : 480 pixels
Display aspect ratio : 4:3
Frame rate : 25.000 fps
Color space : YUV
Chroma subsampling : 4:2:0
Bit depth : 8 bits
Scan type : Progressive
Compression mode : Lossy
Bits/(Pixel*Frame) : 0.156
Stream size : 451 MiB (86%)
Writing library : DivX 6.8.5 (UTC 2009-08-20)

Audio
ID : 1
Format : MPEG Audio
Format version : Version 1
Format profile : Layer 3
Emphasis : 50/15ms
Codec ID : 55
Codec ID/Hint : MP3
Duration : 52mn 31s
Bit rate mode : Constant
Bit rate : 192 Kbps
Channel(s) : 2 channels
Sampling rate : 44.1 KHz
Compression mode : Lossy
Stream size : 72.1 MiB (14%)
Alignment : Split accross interleaves
Interleave, duration : 40 ms (1.00 video frame)
Title : Audio Stream

Kod:
http://ul.to/jccra4l5
 
Top