Šta je novo?
MODERATOR
Učlanjen(a)
10.10.2009
Poruka
13.305
Once Brothers (2010) HC 720p BluRay AC3 5.1 x264 [ExYu-Subs]
(MKV) HQ
30 for 30 Once Brothers (2010)

OZ6XeuC.jpg


Kod:
  https://www.imdb.com/title/tt1738398/

General
Unique ID : 254405375139233672863977921909925645012 (0xBF64B16868261B9A0125D604AA4C8AD4)
Complete name : Once Brothers (2010) HC 720p BluRay AC3 5.1 x264 [ExYu-Subs].mkv
Format : Matroska
Format version : Version 4
File size : 1 006 MiB
Duration : 1 h 20 min
Overall bit rate : 1 758 kb/s
Encoded date : UTC 2018-12-19 08:16:33 / UTC 2018-12-18T15:36:50Z
Writing application : mkvmerge v29.0.0 ('Like It Or Not') 64-bit
Writing library : libebml v1.3.6 + libmatroska v1.4.9 / Lavf57.7.2

Video
ID : 1
Format : AVC
Format/Info : Advanced Video Codec
Format profile : [email protected]
Format settings : CABAC / 8 Ref Frames
Format settings, CABAC : Yes
Format settings, ReFrames : 8 frames
Codec ID : V_MPEG4/ISO/AVC
Duration : 1 h 20 min
Bit rate : 1 500 kb/s
Width : 1 280 pixels
Height : 720 pixels
Display aspect ratio : 16:9
Frame rate mode : Constant
Frame rate : 29.970 (30000/1001) FPS
Color space : YUV
Chroma subsampling : 4:2:0
Bit depth : 8 bits
Scan type : Progressive
Bits/(Pixel*Frame) : 0.054
Stream size : 839 MiB (83%)
Title : Once Brothers (2010)
Writing library : x264 core 155 r2901 7d0ff22
Encoding settings : cabac=1 / ref=8 / deblock=1:-1:-1 / analyse=0x3:0x133 / me=umh / subme=9 / psy=1 / psy_rd=1.00:0.15 / mixed_ref=1 / me_range=16 / chroma_me=1 / trellis=2 / 8x8dct=1 / cqm=0 / deadzone=21,11 / fast_pskip=1 / chroma_qp_offset=-3 / threads=6 / lookahead_threads=1 / sliced_threads=0 / nr=0 / decimate=1 / interlaced=0 / bluray_compat=0 / constrained_intra=0 / bframes=3 / b_pyramid=2 / b_adapt=2 / b_bias=0 / direct=3 / weightb=1 / open_gop=0 / weightp=2 / keyint=300 / keyint_min=30 / scenecut=40 / intra_refresh=0 / rc_lookahead=60 / rc=2pass / mbtree=1 / bitrate=1500 / ratetol=1.0 / qcomp=0.60 / qpmin=0 / qpmax=69 / qpstep=4 / cplxblur=20.0 / qblur=0.5 / vbv_maxrate=62500 / vbv_bufsize=78125 / nal_hrd=none / filler=0 / ip_ratio=1.40 / aq=1:1.00
Language : English
Default : Yes
Forced : No
Color range : Limited
Color primaries : BT.709
Transfer characteristics : BT.709
Matrix coefficients : BT.709
Statistics Tags Issue : mkvmerge v29.0.0 ('Like It Or Not') 64-bit 2018-12-19 08:16:33 / mkvmerge v29.0.0 ('Like It Or Not') 64-bit 2018-12-19 08:16:33 / UTC 2018-12-18T15:36:50Z
FromStats_BitRate : 1499571
FromStats_Duration : 01:20:01.330000000
FromStats_FrameCount : 143896
FromStats_StreamSize : 899992401

Audio
ID : 2
Format : E-AC-3
Format/Info : Enhanced AC-3
Commercial name : Dolby Digital Plus
Codec ID : A_EAC3
Duration : 1 h 20 min
Bit rate mode : Constant
Bit rate : 256 kb/s
Channel(s) : 6 channels
Channel layout : L R C LFE Ls Rs
Sampling rate : 48.0 kHz
Frame rate : 31.250 FPS (1536 SPF)
Compression mode : Lossy
Delay relative to video : -5 ms
Stream size : 147 MiB (15%)
Title : Once Brothers (2010)
Language : English
Service kind : Complete Main
Default : Yes
Forced : No
Statistics Tags Issue : mkvmerge v29.0.0 ('Like It Or Not') 64-bit 2018-12-19 08:16:33 / mkvmerge v29.0.0 ('Like It Or Not') 64-bit 2018-12-19 08:16:33 / UTC 2018-12-18T15:36:50Z
FromStats_BitRate : 256000
FromStats_Duration : 01:20:01.408000000
FromStats_FrameCount : 150044
FromStats_StreamSize : 153645056

epYscVA.png

Hidden content
You need to react to this post in order to see this content.
zbNKcak.jpg

Hidden content
You need to react to this post in order to see this content.
Vr1lYvH.png

ZEqx7aJ.jpg
 
Top