Šta je novo?
Član
Učlanjen(a)
09.05.2011
Poruka
7.549
=
Officer Down (2013) 720p BluRay DTS x264-CHD
File Size: 3.50 GiB

=

oficer.png



General
Complete name : Officer.Down.2013.BluRay.720p.DTS.x264-CHD.mkv
Format : Matroska
Format version : Version 4 / Version 2
File size : 3.50 GiB
Duration : 1h 33mn
Overall bit rate : 5 365 Kbps
Encoded date : UTC 2010-02-22 21:41:31
Writing application : mkvmerge v5.9.0 ('On The Loose') built on Dec 9 2012 15:37:01
Writing library : libebml v1.3.0 + libmatroska v1.4.0

Video
ID : 1
Format : AVC
Format/Info : Advanced Video Codec
Format profile : [email protected]
Format settings, CABAC : Yes
Format settings, ReFrames : 10 frames
Codec ID : V_MPEG4/ISO/AVC
Duration : 1h 33mn
Bit rate : 4 600 Kbps
Width : 1 280 pixels
Height : 544 pixels
Display aspect ratio : 2.35:1
Frame rate mode : Constant
Frame rate : 25.000 fps
Color space : YUV
Chroma subsampling : 4:2:0
Bit depth : 8 bits
Scan type : Progressive
Bits/(Pixel*Frame) : 0.264
Stream size : 2.93 GiB (84%)
Title : Officer Down 2013
Writing library : x264 core 125 r2208 d9d2288
Language : English
Default : Yes
Forced : No

Audio
ID : 2
Format : DTS
Format/Info : Digital Theater Systems
Mode : 16
Format settings, Endianness : Big
Codec ID : A_DTS
Duration : 1h 33mn
Bit rate mode : Constant
Bit rate : 768 Kbps
Channel(s) : 6 channels
Channel positions : Front: L C R, Side: L R, LFE
Sampling rate : 48.0 KHz
Bit depth : 24 bits
Compression mode : Lossy
Stream size : 513 MiB (14%)
Title : English DTS-HDMA core 5.1 768Kbps
Language : English
Default : Yes
Forced : No

Kod:
http://www.imdb.com/title/tt1925479/

vlcsnap-2013-06-08-20h26.png


vlcsnap-2013-06-08-20h29.png


vlcsnap-2013-06-08-20h29.png



DOWNLOAD:
Kod:
http://uploaded.net/file/wi919exd/Offic3R.DowN.720p.part1.rar
http://uploaded.net/file/2cx8gtiv/Offic3R.DowN.720p.part2.rar
http://uploaded.net/file/nwdjw2r6/Offic3R.DowN.720p.part3.rar
http://uploaded.net/file/quisycfu/Offic3R.DowN.720p.part4.rar

http://lumfile.se/1bzpdpxvpjur/Offic3R.DowN.720p.part1.rar.html
http://lumfile.se/c7x58g850ggh/Offic3R.DowN.720p.part2.rar.html
http://lumfile.se/0c8kgangtq2f/Offic3R.DowN.720p.part3.rar.html
http://lumfile.se/waa5jbiqscs2/Offic3R.DowN.720p.part4.rar.html

http://www.filefactory.com/file/7642jz2ph86p/n/Offic3R_DowN_720p_part1_rar
http://www.filefactory.com/file/297is12yfrw1/n/Offic3R_DowN_720p_part2_rar
http://www.filefactory.com/file/33vlr7g1zb0v/n/Offic3R_DowN_720p_part3_rar
http://www.filefactory.com/file/2o04fna8559v/n/Offic3R_DowN_720p_part4_rar
 
Poslednja izmena od urednika:
Član
Učlanjen(a)
02.03.2013
Poruka
3.108
Officer Down (2013) 1080p BluRay DTS-HD MA 5.1 x264-Silver




U2_CPW.jpg



File: 2134OFD1080p2145.mkv
Size: 8045175920 bytes (7.49 GiB), duration: 01:33:23, avg.bitrate: 11487 kb/s
Audio: dts, 48000 Hz, 5:1 (eng)
Video: h264, yuv420p, 1920x814, 25.00 fps(r)


2134_OFD1080p2145_s.jpg



If U Like My Post Willing To Buy Premium For High Speed Resumable downloads Pls BuY Premium From This Links



[/code]


Kod:
http://extabit.com/file/279xhbjn6ts7k/2134OFD1080p2145.mkv.part8.rar
http://extabit.com/file/279xhbjn6tlwg/2134OFD1080p2145.mkv.part1.rar
http://extabit.com/file/279xhbjn6tlzk/2134OFD1080p2145.mkv.part7.rar
http://extabit.com/file/279xhbjn66s68/2134OFD1080p2145.mkv.part2.rar
http://extabit.com/file/279xhbjn66s9c/2134OFD1080p2145.mkv.part3.rar
http://extabit.com/file/279xhbjn66vds/2134OFD1080p2145.mkv.part6.rar
http://extabit.com/file/279xhbjn66vbk/2134OFD1080p2145.mkv.part4.rar
http://extabit.com/file/279xhbjn66fog/2134OFD1080p2145.mkv.part5.rar


 
Poslednja izmena od urednika:
Top