Šta je novo?
SerbianForum

This is a sample guest message. Register a free account today to become a member! Once signed in, you'll be able to participate on this site by adding your own topics and posts, as well as connect with other members through your own private inbox!

Noz (1999)

  • Začetnik teme Zoran_
  • Datum pokretanja
Zoran_

Zoran_

VIP
#1
Noz (1999)


Noz1999.png


imdb6.jpg


Kod:
http://www.imdb.com/title/tt0192377/
Film po hit romanu Vuka Draskovica koji kroz sudbinu svojih likova prica pricu o sudbini nacije, njenim korenima i zlu koje sledi kao prokletstvo kroz vekove. Glavni lik filma je Alija Osmanovic, tj. Ilija Jugovic, koji pokusava da pronade ko je i kakvi su mu koreni i u tom procesu otkriva nesto mnogo dublje i suptilnije. Otkriva i zlo koje ga vuce u potragu za sopstvenim identitetom bez obzira kako se zovu njegovi preci. Noz je ljubavni triler sa epskim elementima.

odlpofcqhvy.png


Noz1999.avi.gif


Noz1999.avi.jpg


downloade0cdd.gif


Noz (1999) DVDRip.XviD.avi

filesflesh2.jpg


You need to like this in order to view this content.
 
Poslednja izmena:
Wolf 13

Wolf 13

Moderator
#3
Noz (1999) DVDrip E-AC3 x264 by Wolf
(MKV)

RuI8uUQ.jpg


Kod:
 https://www.imdb.com/title/tt0192377/
General
Unique ID : 264572050548339111517740932896443769545 (0xC70AB934AAF9BF6FC9916FCD1642A2C9)
Complete name : Noz (1999) DVDrip E-AC3 x264 by Wolf.mkv
Format : Matroska
Format version : Version 4 / Version 2
File size : 1.60 GiB
Duration : 2 h 10 min
Overall bit rate : 1 758 kb/s
Encoded date : UTC 2018-08-11 12:15:21 / UTC 2018-08-11T09:18:44Z
Writing application : mkvmerge v25.0.0 ('Prog Noir') 64-bit
Writing library : libebml v1.3.6 + libmatroska v1.4.9 / Lavf57.7.2

Video
ID : 1
Format : AVC
Format/Info : Advanced Video Codec
Format profile : High 10@L4.1
Format settings : CABAC / 4 Ref Frames
Format settings, CABAC : Yes
Format settings, ReFrames : 4 frames
Codec ID : V_MPEG4/ISO/AVC
Duration : 2 h 10 min
Bit rate : 1 500 kb/s
Width : 702 pixels
Height : 476 pixels
Display aspect ratio : 16:10
Original display aspect rat : 16:10
Frame rate mode : Constant
Frame rate : 25.000 FPS
Color space : YUV
Chroma subsampling : 4:2:0
Bit depth : 10 bits
Scan type : Progressive
Bits/(Pixel*Frame) : 0.180
Stream size : 1.34 GiB (83%)
Writing library : x264 core 155 r2901 7d0ff22
Encoding settings : cabac=1 / ref=3 / deblock=1:0:0 / analyse=0x3:0x113 / me=hex / subme=7 / psy=1 / psy_rd=1.00:0.00 / mixed_ref=1 / me_range=16 / chroma_me=1 / trellis=1 / 8x8dct=1 / cqm=0 / deadzone=21,11 / fast_pskip=1 / chroma_qp_offset=-2 / threads=3 / lookahead_threads=1 / sliced_threads=0 / nr=0 / decimate=1 / interlaced=0 / bluray_compat=0 / constrained_intra=0 / bframes=3 / b_pyramid=2 / b_adapt=1 / b_bias=0 / direct=1 / weightb=1 / open_gop=0 / weightp=2 / keyint=300 / keyint_min=30 / scenecut=40 / intra_refresh=0 / rc_lookahead=40 / rc=2pass / mbtree=1 / bitrate=1500 / ratetol=1.0 / qcomp=0.60 / qpmin=0 / qpmax=81 / qpstep=4 / cplxblur=20.0 / qblur=0.5 / vbv_maxrate=150000 / vbv_bufsize=187500 / nal_hrd=none / filler=0 / ip_ratio=1.40 / aq=1:1.00
Default : Yes
Forced : No
Color range : Limited
Color primaries : BT.601 NTSC
Transfer characteristics : BT.709
Matrix coefficients : BT.601
Statistics Tags Issue : mkvmerge v25.0.0 ('Prog Noir') 64-bit 2018-08-11 12:15:21 / mkvmerge v25.0.0 ('Prog Noir') 64-bit 2018-08-11 12:15:21 / UTC 2018-08-11T09:18:44Z
FromStats_BitRate : 1499993
FromStats_Duration : 02:10:20.280000000
FromStats_FrameCount : 195507
FromStats_StreamSize : 1466296147

Audio
ID : 2
Format : E-AC-3
Format/Info : Enhanced Audio Coding 3
Codec ID : A_EAC3
Duration : 2 h 10 min
Bit rate mode : Constant
Bit rate : 256 kb/s
Channel(s) : 6 channels
Channel positions : Front: L C R, Side: L R, LFE
Sampling rate : 48.0 kHz
Frame rate : 187.500 FPS (256 SPF)
Compression mode : Lossy
Delay relative to video : -21 ms
Stream size : 239 MiB (15%)
Service kind : Complete Main
Default : Yes
Forced : No
Statistics Tags Issue : mkvmerge v25.0.0 ('Prog Noir') 64-bit 2018-08-11 12:15:21 / mkvmerge v25.0.0 ('Prog Noir') 64-bit 2018-08-11 12:15:21 / UTC 2018-08-11T09:18:44Z
FromStats_BitRate : 256000
FromStats_Duration : 02:10:20.256000000
FromStats_FrameCount : 244383
FromStats_StreamSize : 250248192
k2aTdzy.png

You need to like this in order to view this content.
nrZrqd4.png

cm4Tqm1.jpg
 
Poslednja izmena:

Top