Šta je novo?

Ničije Dete aka No One's Child (2014)

MODERATOR
Učlanjen(a)
10.10.2009
Poruka
13.331
Nicije dete (2014) HC HDrip E-AC3 x264 by Wolf
(MKV)

UY9aXXG.jpg

Hard Coded Slo. subtitles

Kod:
 https://www.imdb.com/title/tt3059656/

General
Unique ID : 96856870926093179786965467359161240455 (0x48DDF46E02974B18E7F0648D70F24B87)
Complete name : Nicije dete (2014) HC HDrip E-AC3 x264 by Wolf.mkv
Format : Matroska
Format version : Version 4 / Version 2
File size : 1.14 GiB
Duration : 1 h 32 min
Overall bit rate : 1 757 kb/s
Encoded date : UTC 2018-10-17 16:57:30 / UTC 2018-10-17T12:10:21Z
Writing application : mkvmerge v27.0.0 ('Metropolis') 64-bit
Writing library : libebml v1.3.6 + libmatroska v1.4.9 / Lavf57.7.2

Video
ID : 1
Format : AVC
Format/Info : Advanced Video Codec
Format profile : High 10@L4.1
Format settings : CABAC / 5 Ref Frames
Format settings, CABAC : Yes
Format settings, ReFrames : 5 frames
Codec ID : V_MPEG4/ISO/AVC
Duration : 1 h 32 min
Bit rate : 1 500 kb/s
Width : 720 pixels
Height : 476 pixels
Display aspect ratio : 2.2:1
Frame rate mode : Constant
Frame rate : 25.000 FPS
Color space : YUV
Chroma subsampling : 4:2:0
Bit depth : 10 bits
Scan type : Progressive
Bits/(Pixel*Frame) : 0.175
Stream size : 972 MiB (83%)
Title : Nicije dete (2014)
Writing library : x264 core 155 r2901 7d0ff22
Encoding settings : cabac=1 / ref=5 / deblock=1:-3:-3 / analyse=0x3:0x113 / me=hex / subme=8 / psy=1 / psy_rd=2.00:0.70 / mixed_ref=1 / me_range=16 / chroma_me=1 / trellis=2 / 8x8dct=1 / cqm=0 / deadzone=21,11 / fast_pskip=1 / chroma_qp_offset=-4 / threads=6 / lookahead_threads=1 / sliced_threads=0 / nr=0 / decimate=1 / interlaced=0 / bluray_compat=0 / constrained_intra=0 / bframes=3 / b_pyramid=2 / b_adapt=1 / b_bias=0 / direct=3 / weightb=1 / open_gop=0 / weightp=2 / keyint=250 / keyint_min=25 / scenecut=40 / intra_refresh=0 / rc_lookahead=50 / rc=2pass / mbtree=1 / bitrate=1500 / ratetol=1.0 / qcomp=0.60 / qpmin=0 / qpmax=81 / qpstep=4 / cplxblur=20.0 / qblur=0.5 / vbv_maxrate=150000 / vbv_bufsize=187500 / nal_hrd=none / filler=0 / ip_ratio=1.40 / aq=1:1.20
Language : Serbian
Default : Yes
Forced : No
Color range : Limited
Color primaries : BT.601 PAL
Transfer characteristics : BT.709
Matrix coefficients : BT.601
Statistics Tags Issue : mkvmerge v27.0.0 ('Metropolis') 64-bit 2018-10-17 16:57:30 / mkvmerge v27.0.0 ('Metropolis') 64-bit 2018-10-17 16:57:30 / UTC 2018-10-17T12:10:21Z
FromStats_BitRate : 1499645
FromStats_Duration : 01:32:37.920000000
FromStats_FrameCount : 138948
FromStats_StreamSize : 1041863473

Audio
ID : 2
Format : E-AC-3
Format/Info : Enhanced Audio Coding 3
Codec ID : A_EAC3
Duration : 1 h 32 min
Bit rate mode : Constant
Bit rate : 256 kb/s
Channel(s) : 6 channels
Channel positions : Front: L C R, Side: L R, LFE
Sampling rate : 48.0 kHz
Frame rate : 187.500 FPS (256 SPF)
Compression mode : Lossy
Delay relative to video : -85 ms
Stream size : 170 MiB (15%)
Title : Nicije dete (2014)
Language : Serbian
Service kind : Complete Main
Default : Yes
Forced : No
Statistics Tags Issue : mkvmerge v27.0.0 ('Metropolis') 64-bit 2018-10-17 16:57:30 / mkvmerge v27.0.0 ('Metropolis') 64-bit 2018-10-17 16:57:30 / UTC 2018-10-17T12:10:21Z
FromStats_BitRate : 256000
FromStats_Duration : 01:32:39.712000000
FromStats_FrameCount : 173741
FromStats_StreamSize : 177910784

epYscVA.png

Hidden content
You need to react to this post in order to see this content.
KDLjESO.png

ms6QSv7.jpg
 
Top