Šta je novo?

Ni na nebu ni na zemlji aka In the Middle of Nowhere (1994)

MODERATOR
Učlanjen(a)
10.10.2009
Poruka
13.331
Ni na nebu ni na zemlji (1994) DVDrip AC3 5.1 x264 by Wolf
(MKV) HQ

J7gbdCY.jpg


Kod:
  https://www.imdb.com/title/tt0110659/

General
Unique ID : 49158097725585811338022305064154046544 (0x24FB8157882FAAFFE91538E1E9802050)
Complete name : Ni na nebu ni na zemlji (1994) DVDrip AC3 5.1 x264 by Wolf.mkv
Format : Matroska
Format version : Version 4
File size : 1.28 GiB
Duration : 1 h 44 min
Overall bit rate : 1 758 kb/s
Encoded date : UTC 2018-12-27 13:42:49 / UTC 2018-12-27T11:30:42Z
Writing application : mkvmerge v29.0.0 ('Like It Or Not') 64-bit
Writing library : libebml v1.3.6 + libmatroska v1.4.9 / Lavf57.7.2

Video
ID : 1
Format : AVC
Format/Info : Advanced Video Codec
Format profile : High@L5.1
Format settings : CABAC / 8 Ref Frames
Format settings, CABAC : Yes
Format settings, ReFrames : 8 frames
Codec ID : V_MPEG4/ISO/AVC
Duration : 1 h 44 min
Bit rate : 1 500 kb/s
Width : 700 pixels
Height : 490 pixels
Display aspect ratio : 16:9
Original display aspect rat : 1.429
Frame rate mode : Constant
Frame rate : 25.000 FPS
Color space : YUV
Chroma subsampling : 4:2:0
Bit depth : 8 bits
Scan type : Progressive
Bits/(Pixel*Frame) : 0.175
Stream size : 1.07 GiB (83%)
Title : Ni na nebu ni na zemlji (1994)
Writing library : x264 core 155 r2901 7d0ff22
Encoding settings : cabac=1 / ref=8 / deblock=1:-1:-1 / analyse=0x3:0x133 / me=umh / subme=9 / psy=1 / psy_rd=1.00:0.15 / mixed_ref=1 / me_range=16 / chroma_me=1 / trellis=2 / 8x8dct=1 / cqm=0 / deadzone=21,11 / fast_pskip=1 / chroma_qp_offset=-3 / threads=6 / lookahead_threads=1 / sliced_threads=0 / nr=0 / decimate=1 / interlaced=0 / bluray_compat=0 / constrained_intra=0 / bframes=3 / b_pyramid=2 / b_adapt=2 / b_bias=0 / direct=3 / weightb=1 / open_gop=0 / weightp=2 / keyint=250 / keyint_min=25 / scenecut=40 / intra_refresh=0 / rc_lookahead=60 / rc=2pass / mbtree=1 / bitrate=1500 / ratetol=1.0 / qcomp=0.60 / qpmin=0 / qpmax=69 / qpstep=4 / cplxblur=20.0 / qblur=0.5 / vbv_maxrate=300000 / vbv_bufsize=300000 / nal_hrd=none / filler=0 / ip_ratio=1.40 / aq=1:1.00
Language : Serbian
Default : Yes
Forced : No
Color range : Limited
Color primaries : BT.601 PAL
Transfer characteristics : BT.709
Matrix coefficients : BT.601
Statistics Tags Issue : mkvmerge v29.0.0 ('Like It Or Not') 64-bit 2018-12-27 13:42:49 / mkvmerge v29.0.0 ('Like It Or Not') 64-bit 2018-12-27 13:42:49 / UTC 2018-12-27T11:30:42Z
FromStats_BitRate : 1500174
FromStats_Duration : 01:44:01.440000000
FromStats_FrameCount : 156036
FromStats_StreamSize : 1170406307

Audio
ID : 2
Format : E-AC-3
Format/Info : Enhanced AC-3
Commercial name : Dolby Digital Plus
Codec ID : A_EAC3
Duration : 1 h 44 min
Bit rate mode : Constant
Bit rate : 256 kb/s
Channel(s) : 6 channels
Channel layout : L R C LFE Ls Rs
Sampling rate : 48.0 kHz
Frame rate : 31.250 FPS (1536 SPF)
Compression mode : Lossy
Delay relative to video : -5 ms
Stream size : 190 MiB (15%)
Title : Ni na nebu ni na zemlji (1994)
Language : Serbian
Service kind : Complete Main
Default : Yes
Forced : No
Statistics Tags Issue : mkvmerge v29.0.0 ('Like It Or Not') 64-bit 2018-12-27 13:42:49 / mkvmerge v29.0.0 ('Like It Or Not') 64-bit 2018-12-27 13:42:49 / UTC 2018-12-27T11:30:42Z
FromStats_BitRate : 256000
FromStats_Duration : 01:44:01.472000000
FromStats_FrameCount : 195046
FromStats_StreamSize : 199727104

epYscVA.png

Hidden content
You need to react to this post in order to see this content.
4i0S0PQ.png

rveiKuP.jpg
 
Top