Šta je novo?

New World Order Bible Versions (2014)

  • Začetnik teme zgzagi
  • Datum pokretanja
zgzagi

zgzagi

Učlanjen(a)
25.04.2015
Poruka
394
New World Order Bible Versions (2014)





Kod:
http://www.imdb.com/title/tt3750434/
Kod:
Format  : MPEG-4
Format profile  : Base Media / Version 2
Codec ID  : mp42
File size  : 1.54 GiB
Duration  : 1h 46mn
Overall bit rate mode  : Variable
Overall bit rate  : 2 065 Kbps

Video
ID  : 1
Format  : AVC
Format/Info  : Advanced Video Codec
Format profile  : High@L3.1
Format settings, CABAC  : Yes
Format settings, ReFrames  : 1 frame
Format settings, GOP  : M=1, N=60
Codec ID  : avc1
Codec ID/Info  : Advanced Video Coding
Duration  : 1h 46mn
Bit rate  : 1 871 Kbps
Maximum bit rate  : 15.1 Mbps
Width  : 1 280 pixels
Height  : 720 pixels
Display aspect ratio  : 16:9
Frame rate mode  : Constant
Frame rate  : 29.970 fps
Color space  : YUV
Chroma subsampling  : 4:2:0
Bit depth  : 8 bits
Scan type  : Progressive
Bits/(Pixel*Frame)  : 0.068
Stream size  : 1.40 GiB (91%)


Audio
ID  : 2
Format  : AAC
Format/Info  : Advanced Audio Codec
Format profile  : LC
Codec ID  : 40
Duration  : 1h 46mn
Bit rate mode  : Variable
Bit rate  : 192 Kbps
Maximum bit rate  : 201 Kbps
Channel(s)  : 2 channels
Channel positions  : Front: L R
Sampling rate  : 44.1 KHz
Compression mode  : Lossy
Stream size  : 147 MiB (9%)
Kod:
http://uploaded.net/file/qwx9snqi/NewWordOr%20.part1.rar
http://uploaded.net/file/ortkp6vj/NewWordOr%20.part2.rar
http://uploaded.net/file/kcpgi53q/NewWordOr%20.part3.rar
 
Top