Šta je novo?

Need For Speed (2013)

  • Začetnik teme bane74
  • Datum pokretanja
bane74

bane74

Član
Učlanjen(a)
26.11.2009
Poruka
1.674
Need For Speed (2014) NEW CAM XviD-SUMOTorrent



Kod:
http://www.imdb.com/title/tt2369135/




Kod:
http://filesflash.com/noz0627m
 
Poslednja izmena od urednika:
drsko66

drsko66

UPLOADER
Učlanjen(a)
23.01.2014
Poruka
3.397
Need for Speed 2014 HDRip x264 AC3-MiLLENiUM



:info:

Kod:
 http://www.imdb.com/title/tt2369135/

  • Filename: Need.for.Speed.2014.HDRip.x264.AC3-MiLLENiUMSource: 1080p WEBDLSize: 1.095 GBGenre: Action | Crime | DramaVideo: x264, 720×384 at 837 kb/sAudio: English, AC-3 at 448kb/s
:screen:




:download:

Kod:
http://ul.to/uwfpp11b/Need.for.Speed.2014.HDRip.x264.AC3-MiLLENiUM.mkv

http://rapidgator.net/file/14f19ca069b93d06ca3e219148830412/Need.for.Speed.2014.HDRip.x264.AC3-MiLLENiUM.mkv.html

https://www.oboom.com/V1U1HP1A/Need.for.Speed.2014.HDRip.x264.AC3-MiLLENiUM.mkv

http://letitbit.net/download/51782.5e189505048e7c9d34e7fee4f02d/Need.for.Speed.2014.HDRip.x264.AC3-MiLLENiUM.mkv.html

http://ultrafile.me/1ygjssi3oh0m/Need.for.Speed.2014.HDRip.x264.AC3-MiLLENiUM.mkv.html

http://www.kingfiles.net/7mqrrtvwlihe/Need.for.Speed.2014.HDRip.x264.AC3-MiLLENiUM.mkv

http://freakshare.com/files/41h7knx2/Need.for.Speed.2014.HDRip.x264.AC3-MiLLENiUM.mkv.html

http://turbobit.net/28wajpbyeyjz/Need.for.Speed.2014.HDRip.x264.AC3-MiLLENiUM.mkv.html
 
CyberWarez

CyberWarez

Član
Učlanjen(a)
09.05.2011
Poruka
7.549
************************************************************
Need For Speed (2014) HDRip XviD EVO
File Size: 840 MiB

************************************************************



INFO:
Kod:
General
Complete name                            : Need.For.Speed.2014.HDRip.XviD-EVO.avi
Format                                   : AVI
Format/Info                              : Audio Video Interleave
Format profile                           : OpenDML
Format settings                          : rec
File size                                : 828 MiB
Duration                                 : 2h 5mn
Overall bit rate                         : 924 Kbps
Writing application                      : AVI-Mux GUI 1.17.8.3, Feb 16 201019:42:50

Video
ID                                       : 0
Format                                   : MPEG-4 Visual
Format profile                           : Advanced [email protected]
Format settings, BVOP                    : 2
Format settings, QPel                    : No
Format settings, GMC                     : No warppoints
Format settings, Matrix                  : Default (H.263)
Muxing mode                              : Packed bitstream
Codec ID                                 : XVID
Codec ID/Hint                            : XviD
Duration                                 : 2h 5mn
Bit rate                                 : 791 Kbps
Width                                    : 640 pixels
Height                                   : 272 pixels
Display aspect ratio                     : 2.35:1
Frame rate                               : 30.000 fps
Color space                              : YUV
Chroma subsampling                       : 4:2:0
Bit depth                                : 8 bits
Scan type                                : Progressive
Compression mode                         : Lossy
Bits/(Pixel*Frame)                       : 0.152
Stream size                              : 710 MiB (86%)
Writing library                          : XviD 64

Audio
ID                                       : 1
Format                                   : MPEG Audio
Format version                           : Version 1
Format profile                           : Layer 3
Mode                                     : Joint stereo
Mode extension                           : MS Stereo
Codec ID                                 : 55
Codec ID/Hint                            : MP3
Duration                                 : 2h 5mn
Bit rate mode                            : Constant
Bit rate                                 : 128 Kbps
Channel(s)                               : 2 channels
Sampling rate                            : 48.0 KHz
Compression mode                         : Lossy
Stream size                              : 115 MiB (14%)
Alignment                                : Aligned on interleaves
Interleave, duration                     : 922 ms (27.66 video frames)
Interleave, preload duration             : 216 ms
Title                                    : MP3
Writing library                          : LAME3.99r
iMDB:
Kod:
http://www.imdb.com/title/tt2369135/


Single Extraction | No Password | Interchangeable Links: | Working 100% |

Kod:
http://www.ddlstorage.com/epkostetngg2/NFS14HDRip.EVO.rar.htm
http://rapidgator.net/file/9cb205b7ef4da80e132f95c2887becb1/NFS14HDRip.EVO.rar.html
http://uploaded.net/file/h5qvo4le/NFS14HDRip.EVO.rar
http://k2s.cc/file/ce0bc0c94bf6e/NFS14HDRip.EVO.rar
 
CyberWarez

CyberWarez

Član
Učlanjen(a)
09.05.2011
Poruka
7.549
************************************************************
Need for Speed (2014) HDRip x264 AC3 MiLLENiUM
File Size: 1.06 GiB

************************************************************



INFO:
Kod:
General
Complete name                            : Need for Speed 2014 HDRip x264 AC3-MiLLENiUM.mkv
Format                                   : Matroska
Format version                           : Version 2
File size                                : 1.06 GiB
Duration                                 : 2h 5mn
Overall bit rate mode                    : Constant
Overall bit rate                         : 1 206 Kbps
Encoded date                             : UTC 2014-07-11 13:03:28
Writing application                      : mkvmerge v7.0.0 ('Where We Going') 32bit built on Jun  9 2014 15:08:34
Writing library                          : libebml v1.3.0 + libmatroska v1.4.1
DURATION                                 : 02:05:23

Video
ID                                       : 1
Format                                   : AVC
Format/Info                              : Advanced Video Codec
Format profile                           : [email protected]
Format settings, CABAC                   : Yes
Format settings, ReFrames                : 3 frames
Codec ID                                 : V_MPEG4/ISO/AVC
Duration                                 : 2h 5mn
Bit rate mode                            : Constant
Bit rate                                 : 768 Kbps
Width                                    : 720 pixels
Height                                   : 304 pixels
Display aspect ratio                     : 2.35:1
Frame rate mode                          : Constant
Frame rate                               : 30.000 fps
Standard                                 : NTSC
Color space                              : YUV
Chroma subsampling                       : 4:2:0
Bit depth                                : 8 bits
Scan type                                : Progressive
Bits/(Pixel*Frame)                       : 0.117
Stream size                              : 658 MiB (61%)
Language                                 : English
Default                                  : Yes
Forced                                   : No
Color primaries                          : BT.601 NTSC
Transfer characteristics                 : BT.601
Matrix coefficients                      : BT.601

Audio
ID                                       : 2
Format                                   : AC-3
Format/Info                              : Audio Coding 3
Mode extension                           : CM (complete main)
Format settings, Endianness              : Big
Codec ID                                 : A_AC3
Duration                                 : 2h 5mn
Bit rate mode                            : Constant
Bit rate                                 : 448 Kbps
Channel(s)                               : 6 channels
Channel positions                        : Front: L C R, Side: L R, LFE
Sampling rate                            : 48.0 KHz
Bit depth                                : 16 bits
Compression mode                         : Lossy
Stream size                              : 402 MiB (37%)
Language                                 : English
Default                                  : Yes
Forced                                   : No
iMDB:
Kod:
http://www.imdb.com/title/tt2369135/






Single Extraction | No Password | Interchangeable Links: | Working 100% |

Kod:
http://www.ddlstorage.com/pzt76oy0rner/Need.for.Speed.2014.HDRip.MiLLENiUM.rar.htm
http://rapidgator.net/file/f56b61ff6ba537acc7e45abf28b910fd/Need.for.Speed.2014.HDRip.MiLLENiUM.rar.html
http://uploaded.net/file/6wo17wjx/Need.for.Speed.2014.HDRip.MiLLENiUM.rar
http://k2s.cc/file/3d746f5cccdfe/Need.for.Speed.2014.HDRip.MiLLENiUM.rar
 
Top