Šta je novo?

Nebeska udica aka Sky Hook (2000)

MODERATOR
Učlanjen(a)
10.10.2009
Poruka
13.331
Nebeska udica (2000) 1080p HD DVDrip DD5.1 x264 by Wolf
(MKV) HQ

E4MQWYS.jpg


Kod:
 https://www.imdb.com/title/tt0209180/

General
Unique ID : 89313477644009164567778519149390097283 (0x4331266D29BCA4CD410F8C8A8C386B83)
Complete name : Nebeska udica (2000) 1080p HD DVDrip DD5.1 x264 by Wolf.mkv
Format : Matroska
Format version : Version 4
File size : 1.15 GiB
Duration : 1 h 28 min
Overall bit rate : 1 857 kb/s
Encoded date : UTC 2020-09-14 19:03:07
Writing application : mkvmerge v50.0.0 ('Awakenings') 64-bit
Writing library : libebml v1.4.0 + libmatroska v1.6.2

Video
ID : 1
Format : AVC
Format/Info : Advanced Video Codec
Format profile : High@L5.1
Format settings : CABAC / 16 Ref Frames
Format settings, CABAC : Yes
Format settings, Reference : 16 frames
Codec ID : V_MPEG4/ISO/AVC
Duration : 1 h 28 min
Bit rate : 1 600 kb/s
Width : 1 348 pixels
Height : 800 pixels
Display aspect ratio : 16:9
Original display aspect rat : 1.274
Frame rate mode : Constant
Frame rate : 25.000 FPS
Color space : YUV
Chroma subsampling : 4:2:0
Bit depth : 8 bits
Scan type : Progressive
Bits/(Pixel*Frame) : 0.059
Stream size : 1 016 MiB (86%)
Title : Nebeska udica (2000)
Writing library : x264 core 157 r2935 545de2f
Encoding settings : cabac=1 / ref=16 / deblock=1:-1:-1 / analyse=0x3:0x133 / me=tesa / subme=11 / psy=1 / psy_rd=1.00:0.15 / mixed_ref=1 / me_range=24 / chroma_me=1 / trellis=2 / 8x8dct=1 / cqm=0 / deadzone=21,11 / fast_pskip=0 / chroma_qp_offset=-3 / threads=6 / lookahead_threads=1 / sliced_threads=0 / nr=0 / decimate=1 / interlaced=0 / bluray_compat=0 / constrained_intra=0 / bframes=16 / b_pyramid=2 / b_adapt=2 / b_bias=0 / direct=3 / weightb=1 / open_gop=0 / weightp=2 / keyint=250 / keyint_min=25 / scenecut=40 / intra_refresh=0 / rc_lookahead=60 / rc=2pass / mbtree=1 / bitrate=1600 / ratetol=1.0 / qcomp=0.60 / qpmin=0 / qpmax=69 / qpstep=4 / cplxblur=20.0 / qblur=0.5 / vbv_maxrate=300000 / vbv_bufsize=300000 / nal_hrd=none / filler=0 / ip_ratio=1.40 / aq=1:1.00
Language : Serbian
Default : Yes
Forced : No
Color range : Limited
Color primaries : BT.709
Transfer characteristics : BT.709
Matrix coefficients : BT.709

Audio
ID : 2
Format : AC-3
Format/Info : Audio Coding 3
Commercial name : Dolby Digital
Codec ID : A_AC3
Duration : 1 h 28 min
Bit rate mode : Constant
Bit rate : 256 kb/s
Channel(s) : 6 channels
Channel layout : L R C LFE Ls Rs
Sampling rate : 48.0 kHz
Frame rate : 31.250 FPS (1536 SPF)
Compression mode : Lossy
Stream size : 163 MiB (14%)
Title : Nebeska udica (2000)
Language : Serbian
Service kind : Complete Main
Default : Yes
Forced : No

epYscVA.png

Hidden content
You need to react to this post in order to see this content.
zbNKcak.jpg

Hidden content
You need to react to this post in order to see this content.
vedMMvE.png
 
Top