Šta je novo?

Natural Born Killers (1994)

  • Začetnik teme Torrent Maniak
  • Datum pokretanja
Torrent Maniak

Torrent Maniak

MODERATOR
Učlanjen(a)
02.05.2009
Poruka
29.186
[h=2]Natural Born Killers Unrated Directors Cut (1994) 720p BluRay x264-WiKi [/h]







Kod:
http://www.filefactory.com/file/6xahr0jop7xf/n/Natural_Born_k1llers_WiKi_part1_rar
http://www.filefactory.com/file/5muzghclww09/n/Natural_Born_k1llers_WiKi_part2_rar
http://www.filefactory.com/file/5mffi30lqcnb/n/Natural_Born_k1llers_WiKi_part3_rar
http://www.filefactory.com/file/209fcekxjucf/n/Natural_Born_k1llers_WiKi_part4_rar
http://www.filefactory.com/file/7bvlxuhpuhmh/n/Natural_Born_k1llers_WiKi_part5_rar


.Release.Info
ENCODER...................: Island
RELEASE DATE..............: 2012-06-28
RELEASE SIZE..............: 6.55 GiB
SOURCE....................: Blu-Ray.1080P.VC-1.TrueHD.-george.c

.Media.Info
RUNTIME...................: 2h:02m:03s
VIDEO CODEC...............: x264: 2pass-L4.1 @ 7054 Kbps
RESOLUTION................: 1280x720
DISPLAY ASPECT RATIO......: 1.78:1
FRAME RATE................: 23.976 fps
AUDiO CODEC...............: English DD @ 640 Kbps

.x264.Info
x264 [info]: profile High, level 4.1
x264 [info]: frame I:1280 Avg QP:16.24 size:115943
x264 [info]: frame P:41577 Avg QP:19.24 size: 53136
x264 [info]: frame B:132726 Avg QP:21.00 size: 30870
x264 [info]: consecutive B-frames: 3.0% 3.8% 7.3% 34.3% 11.0% 29.3% 3.8% 6.3% 1.2%

The misadventures of Mickey and Mallory: outcasts, lovers, and serial killers. They travel
across Route 666 conducting psychadelic mass-slaughters not for money, not for
revenge, just for kicks. Glorified by the media, the pair become legendary folk heroes;
their story told by the single person they leave alive at the scene of each of their
slaughters.


Natural Born Killers (1994) - IMDb




 
Poslednja izmena od urednika:
Torrent Maniak

Torrent Maniak

MODERATOR
Učlanjen(a)
02.05.2009
Poruka
29.186
[h=2]Natural Born Killers Unrated Directors Cut (1994) 1080p BluRay x264-WiKi [/h]








Kod:
http://www.filefactory.com/file/5eh7ondxls0v/n/Natural_Born_Kllers_1080_WiKi_part01_rar
http://www.filefactory.com/file/71djisbjnl83/n/Natural_Born_Kllers_1080_WiKi_part02_rar
http://www.filefactory.com/file/5zwk9apcvp9n/n/Natural_Born_Kllers_1080_WiKi_part03_rar
http://www.filefactory.com/file/5i496r2lg0q7/n/Natural_Born_Kllers_1080_WiKi_part04_rar
http://www.filefactory.com/file/4o21g8u2ymfn/n/Natural_Born_Kllers_1080_WiKi_part05_rar
http://www.filefactory.com/file/1cnze4ll2ghz/n/Natural_Born_Kllers_1080_WiKi_part06_rar
http://www.filefactory.com/file/12z4edh86vu5/n/Natural_Born_Kllers_1080_WiKi_part07_rar
http://www.filefactory.com/file/20d38rv6v3td/n/Natural_Born_Kllers_1080_WiKi_part08_rar
http://www.filefactory.com/file/2tb4k8fhm5k3/n/Natural_Born_Kllers_1080_WiKi_part09_rar



.Release.Info
ENCODER...................: Island
RELEASE DATE..............: 2012-06-28
RELEASE SIZE..............: 13 GiB
SOURCE....................: Blu-Ray.1080P.VC-1.TrueHD.-george.c

.Media.Info
RUNTIME...................: 2h:02m:03s
VIDEO CODEC...............: x264: 2pass-L4.1 @ 14605 Kbps
RESOLUTION................: 1920x1080
DISPLAY ASPECT RATIO......: 1.78:1
FRAME RATE................: 23.976 fps
AUDiO CODEC...............: English DD @ 640 Kbps

.x264.Info
x264 [info]: profile High, level 4.1
x264 [info]: frame I:1124 Avg QP:17.72 size:164489
x264 [info]: frame P:50434 Avg QP:19.19 size:100338
x264 [info]: frame B:124027 Avg QP:20.53 size: 65472
x264 [info]: consecutive B-frames: 3.6% 13.1% 5.6% 52.4% 9.3% 9.3% 4.0% 2.4% 0.4%


The misadventures of Mickey and Mallory: outcasts, lovers, and serial killers. They travel
across Route 666 conducting psychadelic mass-slaughters not for money, not for
revenge, just for kicks. Glorified by the media, the pair become legendary folk heroes;
their story told by the single person they leave alive at the scene of each of their
slaughters.


Natural Born Killers (1994) - IMDb




 
Poslednja izmena od urednika:
CyberWarez

CyberWarez

Član
Učlanjen(a)
09.05.2011
Poruka
7.549
************************************************************
Natural Born Killers (1994) Directors Cut 720p BluRay x264 SiNNERS
File Size: 4.37 GiB

************************************************************



Title: Natural Born Killers
Year: 1994
Genre: Crime, Drama
Rating: 7.3 (136,919 votes)
Runtime: 118 min
Director: Oliver Stone
Cast: Woody Harrelson, Juliette Lewis, Tom Sizemore, Rodney Dangerfield
Plot:
Kod:
Two victims of traumatized childhoods become lovers and psychopathic serial murderers irresponsibly glorified by the mass media.
INFO:

General
Complete name : Natural.Born.Killers.1994.Directors.Cut.720p.BluRay.x264-SiNNERS.mkv
Format : Matroska
Format version : Version 2
File size : 4.37 GiB
Duration : 2h 2mn
Overall bit rate : 5 126 Kbps
Encoded date : UTC 2009-10-26 14:04:04
Writing application : mkvmerge v2.9.8 ('C'est le bon') built on Aug 13 2009 12:49:06
Writing library : libebml v0.7.7 + libmatroska v0.8.1

Video
ID : 1
Format : AVC
Format/Info : Advanced Video Codec
Format profile : [email protected]
Format settings, CABAC : Yes
Format settings, ReFrames : 5 frames
Codec ID : V_MPEG4/ISO/AVC
Duration : 2h 2mn
Bit rate : 4 485 Kbps
Width : 1 280 pixels
Height : 720 pixels
Display aspect ratio : 16:9
Frame rate mode : Constant
Frame rate : 23.976 fps
Color space : YUV
Chroma subsampling : 4:2:0
Bit depth : 8 bits
Scan type : Progressive
Bits/(Pixel*Frame) : 0.203
Stream size : 3.74 GiB (86%)
Writing library : x264 core 78 r1310 ec46ace
Language : English
Default : No
Forced : No

Audio
ID : 2
Format : AC-3
Format/Info : Audio Coding 3
Mode extension : CM (complete main)
Format settings, Endianness : Big
Codec ID : A_AC3
Duration : 2h 2mn
Bit rate mode : Constant
Bit rate : 640 Kbps
Channel(s) : 6 channels
Channel positions : Front: L C R, Side: L R, LFE
Sampling rate : 48.0 KHz
Bit depth : 16 bits
Compression mode : Lossy
Stream size : 559 MiB (12%)
Default : Yes
Forced : No
iMDB:
Kod:
http://www.imdb.com/title/tt0110632/
Movie Trailer:
Kod:
http://www.youtube.com/watch?v=YTCL0I2nK4A



Single Extraction | No Password | Interchangeable Links: | Working 100% |

Kod:
http://uploaded.net/file/7xos41u6/NaturaLBK.1994.720p.SiNNERS.part1.rar
http://uploaded.net/file/c8vrdenz/NaturaLBK.1994.720p.SiNNERS.part2.rar
http://uploaded.net/file/098wtvg9/NaturaLBK.1994.720p.SiNNERS.part3.rar
http://uploaded.net/file/al19v53v/NaturaLBK.1994.720p.SiNNERS.part4.rar
http://uploaded.net/file/scnpdzty/NaturaLBK.1994.720p.SiNNERS.part5.rar

http://rapidgator.net/file/bc9f6f324580243461d9f7c955c75907/NaturaLBK.1994.720p.SiNNERS.part1.rar.html
http://rapidgator.net/file/540aaf3f1c24eb5faa037713e9dc49e8/NaturaLBK.1994.720p.SiNNERS.part2.rar.html
http://rapidgator.net/file/c61631d637f5c78dde983f476a799cb3/NaturaLBK.1994.720p.SiNNERS.part3.rar.html
http://rapidgator.net/file/dda62d81ad2ffcc9fc29811d52daa7f8/NaturaLBK.1994.720p.SiNNERS.part4.rar.html
http://rapidgator.net/file/6224cbabe5a2ddfa6952d28e817d769a/NaturaLBK.1994.720p.SiNNERS.part5.rar.html

http://ryushare.com/273300364c71/NaturaLBK.1994.720p.SiNNERS.part1.rar
http://ryushare.com/264a2b913c48/NaturaLBK.1994.720p.SiNNERS.part2.rar
http://ryushare.com/273300364c72/NaturaLBK.1994.720p.SiNNERS.part3.rar
http://ryushare.com/256156ec3eee/NaturaLBK.1994.720p.SiNNERS.part4.rar
http://ryushare.com/256156ec3eed/NaturaLBK.1994.720p.SiNNERS.part5.rar

http://k2s.cc/file/96669c7abd6a1/NaturaLBK.1994.720p.SiNNERS.part1.rar
http://k2s.cc/file/4b9859f494721/NaturaLBK.1994.720p.SiNNERS.part2.rar
http://k2s.cc/file/d3cba5c0d7259/NaturaLBK.1994.720p.SiNNERS.part3.rar
http://k2s.cc/file/f3ddbb07ab539/NaturaLBK.1994.720p.SiNNERS.part4.rar
http://k2s.cc/file/38ba6e89ccc32/NaturaLBK.1994.720p.SiNNERS.part5.rar


I HAVE BACKUP, DONT WORRY ABOUT DEAD LINKS, PLEASE SEND ME PM, AND I WILL REUP ANY LINK
 
Top