Šta je novo?

Narcopolis (2015)

  • Začetnik teme CyberWarez
  • Datum pokretanja
CyberWarez

CyberWarez

Član
Učlanjen(a)
09.05.2011
Poruka
7.549

Narcopolis (2015) 1080p BluRay x264 YIFY
File Size: 1.44 GiB




INFO:
Kod:
General
Complete name                  : Narcopolis.2015.1080p.BluRay.x264.YIFY.mp4
Format                         : MPEG-4
Format profile                 : Base Media
Codec ID                       : isom
File size                      : 1.44 GiB
Duration                       : 1h 35mn
Overall bit rate mode          : Variable
Overall bit rate               : 2 157 Kbps

Video
ID                             : 1
Format                         : AVC
Format/Info                    : Advanced Video Codec
Format profile                 : [email protected]
Format settings, CABAC         : Yes
Format settings, ReFrames      : 4 frames
Codec ID                       : avc1
Codec ID/Info                  : Advanced Video Coding
Duration                       : 1h 35mn
Bit rate                       : 2 060 Kbps
Maximum bit rate               : 10.6 Mbps
Width                          : 1 920 pixels
Height                         : 808 pixels
Display aspect ratio           : 2.40:1
Frame rate mode                : Constant
Frame rate                     : 23.976 fps
Color space                    : YUV
Chroma subsampling             : 4:2:0
Bit depth                      : 8 bits
Scan type                      : Progressive
Bits/(Pixel*Frame)             : 0.055
Stream size                    : 1.38 GiB (95%)
Writing library                : x264 core 123 r2189 35cf912
Color primaries                : BT.709
Matrix coefficients            : BT.709

Audio
ID                             : 2
Format                         : AAC
Format/Info                    : Advanced Audio Codec
Format profile                 : LC
Codec ID                       : 40
Duration                       : 1h 35mn
Bit rate mode                  : Variable
Bit rate                       : 93.6 Kbps
Maximum bit rate               : 106 Kbps
Channel count                  : 2 channels
Channel positions              : Front: L R
Sampling rate                  : 48.0 KHz
Compression mode               : Lossy
Stream size                    : 64.1 MiB (4%)
iMDB:
Kod:
http://www.imdb.com/title/tt1957938/


Single Extraction | No Password | Interchangeable Links | Working 100%

Kod:
http://rapidgator.net/file/9966fb64d9a25810742af57f3d470c2b/Narcopolis.1080p.BrRip.YIFY.rar.html
http://uploaded.net/file/32hrie2y/Narcopolis.1080p.BrRip.YIFY.rar
http://k2s.cc/file/311c8f3ab9c17/Narcopolis.1080p.BrRip.YIFY.rar
http://nitroflare.com/view/E200DAA7FAF5F24/Narcopolis.1080p.BrRip.YIFY.rar
 
Top