Šta je novo?

Nacionalna klasa aka National Class Category Up to 785 Ccm (1979)

  • Začetnik teme Nikola096
  • Datum pokretanja
Nikola096

Nikola096

Učlanjen(a)
13.12.2012
Poruka
328
Nacionalna klasa (1979) - Restaurirana verzija By VIP Kinoteka 720p WEB-DL



Mladic iz predgradja, automobilski trkac u nacionalnoj klasi, u skladu sa svojom strascu vazi i kao veliki ljubavnik. Ali nije u skladu sa njegovim ambicijama da i dalje vozi u nacionalnoj klasi. Da bi presao u visu klasu, mora da pobedi na vaznoj trci, a da bi u tome uspeo mora da odlozi sluzenje vojnog roka. Za to mu sluzi Mile, bubrezni bolesnik, koji umesto njega ide na preglede. Medjutim, to ne uspeva kao sto ne uspeva ni izbegavanje braka sa sluzbenom devojkom, koja je zatrudnela.



Hidden content
You need to react to this post in order to see this content.
 
Nikola096

Nikola096

Učlanjen(a)
13.12.2012
Poruka
328
Nacionalna klasa (1979) - Restaurirana verzija By VIP Kinoteka 1080p WEB-DL



Mladic iz predgradja, automobilski trkac u nacionalnoj klasi, u skladu sa svojom strascu vazi i kao veliki ljubavnik. Ali nije u skladu sa njegovim ambicijama da i dalje vozi u nacionalnoj klasi. Da bi presao u visu klasu, mora da pobedi na vaznoj trci, a da bi u tome uspeo mora da odlozi sluzenje vojnog roka. Za to mu sluzi Mile, bubrezni bolesnik, koji umesto njega ide na preglede. Medjutim, to ne uspeva kao sto ne uspeva ni izbegavanje braka sa sluzbenom devojkom, koja je zatrudnela.



Hidden content
You need to react to this post in order to see this content.
 
Wolf 13

Wolf 13

MODERATOR
Učlanjen(a)
10.10.2009
Poruka
13.278
Nacionalna klasa (1979) 1080p WEBrip DD5.1 x264 by Wolf
(MKV) HQ



Kod:
 https://www.imdb.com/title/tt0079606/
General
Unique ID : 55677737093954414904825444776931572641 (0x29E324615A7FA4D72BBCE2FA58953BA1)
Complete name : Nacionalna klasa (1979) 1080p WEBrip DD5.1 x264 by Wolf.mkv
Format : Matroska
Format version : Version 4
File size : 1.24 GiB
Duration : 1 h 41 min
Overall bit rate : 1 758 kb/s
Encoded date : UTC 2019-06-11 09:55:38
Writing application : mkvmerge v34.0.0 ('Sight and Seen') 64-bit
Writing library : libebml v1.3.7 + libmatroska v1.5.0 / Lavf58.20.100

Video
ID : 1
Format : AVC
Format/Info : Advanced Video Codec
Format profile : [email protected]
Format settings : CABAC / 16 Ref Frames
Format settings, CABAC : Yes
Format settings, ReFrames : 16 frames
Codec ID : V_MPEG4/ISO/AVC
Duration : 1 h 41 min
Bit rate : 1 500 kb/s
Width : 1 872 pixels
Height : 1 080 pixels
Display aspect ratio : 16:9
Original display aspect rat : 1.733
Frame rate mode : Constant
Frame rate : 25.000 FPS
Color space : YUV
Chroma subsampling : 4:2:0
Bit depth : 8 bits
Scan type : Progressive
Bits/(Pixel*Frame) : 0.030
Stream size : 1.06 GiB (85%)
Title : Nacionalna klasa (1979)
Writing library : x264 core 157 r2935 545de2f
Encoding settings : cabac=1 / ref=16 / deblock=1:-1:-1 / analyse=0x3:0x133 / me=umh / subme=10 / psy=1 / psy_rd=1.00:0.15 / mixed_ref=1 / me_range=24 / chroma_me=1 / trellis=2 / 8x8dct=1 / cqm=0 / deadzone=21,11 / fast_pskip=1 / chroma_qp_offset=-3 / threads=6 / lookahead_threads=1 / sliced_threads=0 / nr=0 / decimate=1 / interlaced=0 / bluray_compat=0 / constrained_intra=0 / bframes=8 / b_pyramid=2 / b_adapt=2 / b_bias=0 / direct=3 / weightb=1 / open_gop=0 / weightp=2 / keyint=250 / keyint_min=25 / scenecut=40 / intra_refresh=0 / rc_lookahead=60 / rc=2pass / mbtree=1 / bitrate=1500 / ratetol=1.0 / qcomp=0.60 / qpmin=0 / qpmax=69 / qpstep=4 / cplxblur=20.0 / qblur=0.5 / vbv_maxrate=300000 / vbv_bufsize=300000 / nal_hrd=none / filler=0 / ip_ratio=1.40 / aq=1:1.00
Language : Serbian
Default : Yes
Forced : No
Color range : Limited
Color primaries : BT.709
Transfer characteristics : BT.709
Matrix coefficients : BT.709

Audio
ID : 2
Format : E-AC-3
Format/Info : Enhanced AC-3
Commercial name : Dolby Digital Plus
Codec ID : A_EAC3
Duration : 1 h 41 min
Bit rate mode : Constant
Bit rate : 256 kb/s
Channel(s) : 6 channels
Channel layout : L R C LFE Ls Rs
Sampling rate : 48.0 kHz
Frame rate : 31.250 FPS (1536 SPF)
Compression mode : Lossy
Stream size : 185 MiB (15%)
Title : Nacionalna klasa (1979)
Language : Serbian
Service kind : Complete Main
Default : Yes
Forced : No

Hidden content
You need to react to this post in order to see this content.

Hidden content
You need to react to this post in order to see this content.

 
M

maja_jevtic

UREDNIK
Učlanjen(a)
27.06.2011
Poruka
10.127
Nacionalna klasa (1979) 1080p WEB-DL x264












Hidden content
You need to react to this post in order to see this content.

 
Poslednja izmena:
Top