Šta je novo?

N Y C Underground (2013)

  • Začetnik teme CyberWarez
  • Datum pokretanja
CyberWarez

CyberWarez

Član
Učlanjen(a)
09.05.2011
Poruka
7.549
************************************************************
N Y C Underground (2013) 1080p Bluray x264 EVO
File Size: 8.58 GiB

************************************************************



INFO:
Kod:
General
Complete name                            : N.Y.C.Underground.2013.1080p.Bluray.x264-EVO.mkv
Format                                   : Matroska
Format version                           : Version 4 / Version 2
File size                                : 8.58 GiB
Duration                                 : 1h 26mn
Overall bit rate                         : 14.2 Mbps
Encoded date                             : UTC 2014-09-24 19:48:10
Writing application                      : mkvmerge v6.7.0 ('Back to the Ground') 64bit built on Jan  8 2014 15:10:52
Writing library                          : libebml v1.3.0 + libmatroska v1.4.1

Video
ID                                       : 1
Format                                   : AVC
Format/Info                              : Advanced Video Codec
Format profile                           : [email protected]
Format settings, CABAC                   : Yes
Format settings, ReFrames                : 4 frames
Codec ID                                 : V_MPEG4/ISO/AVC
Duration                                 : 1h 26mn
Bit rate                                 : 14.0 Mbps
Width                                    : 1 920 pixels
Height                                   : 1 072 pixels
Display aspect ratio                     : 16:9
Frame rate mode                          : Constant
Frame rate                               : 23.976 fps
Color space                              : YUV
Chroma subsampling                       : 4:2:0
Bit depth                                : 8 bits
Scan type                                : Progressive
Bits/(Pixel*Frame)                       : 0.284
Stream size                              : 8.26 GiB (96%)
Writing library                          : x264 core 130 r2273 b3065e6
Language                                 : English
Default                                  : Yes
Forced                                   : No

Audio
ID                                       : 2
Format                                   : AC-3
Format/Info                              : Audio Coding 3
Mode extension                           : CM (complete main)
Format settings, Endianness              : Big
Codec ID                                 : A_AC3
Duration                                 : 1h 26mn
Bit rate mode                            : Constant
Bit rate                                 : 256 Kbps
Channel(s)                               : 2 channels
Channel positions                        : Front: L R
Sampling rate                            : 48.0 KHz
Bit depth                                : 16 bits
Compression mode                         : Lossy
Stream size                              : 158 MiB (2%)
Language                                 : English
Default                                  : Yes
Forced                                   : No
iMDB:
Kod:
http://www.imdb.com/title/tt0907625/






Single Extraction | No Password | Interchangeable Links: | Working 100% |

Kod:
http://uploaded.net/file/bxr2gnxi/N.Y.C.Underground.1080p.EVO.part01.rar
http://uploaded.net/file/2rk7r3vh/N.Y.C.Underground.1080p.EVO.part02.rar
http://uploaded.net/file/5me1i4kn/N.Y.C.Underground.1080p.EVO.part03.rar
http://uploaded.net/file/xast2wmq/N.Y.C.Underground.1080p.EVO.part04.rar
http://uploaded.net/file/265jxxdd/N.Y.C.Underground.1080p.EVO.part05.rar
http://uploaded.net/file/mfh1b687/N.Y.C.Underground.1080p.EVO.part06.rar
http://uploaded.net/file/4sn94j3r/N.Y.C.Underground.1080p.EVO.part07.rar
http://uploaded.net/file/eqcg85tb/N.Y.C.Underground.1080p.EVO.part08.rar
http://uploaded.net/file/vgxzpadq/N.Y.C.Underground.1080p.EVO.part09.rar

http://rapidgator.net/file/fe89ccb3e5a0dbc5df7157b19ea0265c/N.Y.C.Underground.1080p.EVO.part01.rar.html
http://rapidgator.net/file/cb733a15014058a9f18972b7cb868eed/N.Y.C.Underground.1080p.EVO.part02.rar.html
http://rapidgator.net/file/cc543cd4de254014e56b6c8dfb5fbb58/N.Y.C.Underground.1080p.EVO.part03.rar.html
http://rapidgator.net/file/d82239619e099b235a9488d6989c3c7c/N.Y.C.Underground.1080p.EVO.part04.rar.html
http://rapidgator.net/file/9c8e6ab329473112cc37a4f7743793ef/N.Y.C.Underground.1080p.EVO.part05.rar.html
http://rapidgator.net/file/17376080df2ea0e7a4f89ab629a99cf2/N.Y.C.Underground.1080p.EVO.part06.rar.html
http://rapidgator.net/file/57485b0eb4a721ee70101e3f1ded1dad/N.Y.C.Underground.1080p.EVO.part07.rar.html
http://rapidgator.net/file/af60a9291c56c4e3e6fd45cd5d4bea69/N.Y.C.Underground.1080p.EVO.part08.rar.html
http://rapidgator.net/file/0b8fa56278dc4621638cce9d09eafe12/N.Y.C.Underground.1080p.EVO.part09.rar.html

http://xerver.co/23im2ghgg4x7/N.Y.C.Underground.1080p.EVO.part01.rar
http://xerver.co/8369zatolzd7/N.Y.C.Underground.1080p.EVO.part02.rar
http://xerver.co/zal8xjkz7imr/N.Y.C.Underground.1080p.EVO.part03.rar
http://xerver.co/gqrdp77qp3q3/N.Y.C.Underground.1080p.EVO.part04.rar
http://xerver.co/v3p07vyr5o58/N.Y.C.Underground.1080p.EVO.part05.rar
http://xerver.co/cjku0vy75n2n/N.Y.C.Underground.1080p.EVO.part06.rar
http://xerver.co/h8dru2lxkb01/N.Y.C.Underground.1080p.EVO.part07.rar
http://xerver.co/6nw0zyciut6f/N.Y.C.Underground.1080p.EVO.part08.rar
http://xerver.co/y8e6qvlune6l/N.Y.C.Underground.1080p.EVO.part09.rar

http://k2s.cc/file/27d54908bcfbc/N.Y.C.Underground.1080p.EVO.part01.rar
http://k2s.cc/file/0376f43b10bd3/N.Y.C.Underground.1080p.EVO.part02.rar
http://k2s.cc/file/5a87a87d7cb76/N.Y.C.Underground.1080p.EVO.part03.rar
http://k2s.cc/file/b9153850ae15b/N.Y.C.Underground.1080p.EVO.part04.rar
http://k2s.cc/file/a98fc88f550b3/N.Y.C.Underground.1080p.EVO.part05.rar
http://k2s.cc/file/94e20376052a8/N.Y.C.Underground.1080p.EVO.part06.rar
http://k2s.cc/file/e0383b6c43620/N.Y.C.Underground.1080p.EVO.part07.rar
http://k2s.cc/file/116d668bd6f6d/N.Y.C.Underground.1080p.EVO.part08.rar
http://k2s.cc/file/2e356ca8ca7be/N.Y.C.Underground.1080p.EVO.part09.rar
 
Top