Šta je novo?
SerbianForum

Dobrodošli na SerbianForum.org, mjesto na kojem možete pronaći apsolutno sve, mjesto druženja i odlične zabave!

Monster family aka Чудовишта из моје породице (2017)

  • Začetnik teme simark
  • Datum pokretanja
S

simark

Чудовишта из моје породице НОВ ЗВУК
-на српском језику и немачком језику

Monster family - Happy family (NEW SER , 2017)

После више од годину дана НОВИ српски ЗВУК. Снимак је новији у вишој резолуцији, додат и немачки звук. Уживајте...


Complete name :Чудовишта из моје породице - Monster.Family.2017.720p.BluRay.x264.AM.Dual-simark.mkv

File size : 870 MiB
Duration : 1 h 33 min

Video
Codec ID : V_MPEG4/ISO/AVC
Bit rate : 1 050 kb/s
Width : 1 280 pixels
Height : 534 pixels
Display aspect ratio : 2.40:1
Frame rate : 23.976 (24000/1001) FPS
Stream size : 699 MiB (80%)
Writing library : x264 core 155

Audio #1
Codec ID : A_AAC-2
Bit rate : 128 kb/s
Channel(s) : 2 channels
Sampling rate : 48.0 kHz
Stream size : 84.9 MiB (10%)
Language : Serbian

Audio #2
Codec ID : A_AAC-2
Bit rate : 127 kb/s
Channel(s) : 2 channels
Sampling rate : 48.0 kHz
Stream size : 84.5 MiB (10%)
Language : German


Hidden content
You need to react to this post in order to see this content.
Нема шифре, пост комплетиран...
 
Poslednja izmena:
Top