Šta je novo?

Miris poljskog cveca (1977)

  • Začetnik teme nexa992
  • Datum pokretanja
Nikola096

Nikola096

Učlanjen(a)
13.12.2012
Poruka
328
Miris poljskog cveca (1977) - Restaurirana verzija 1080p




Rezija: Srdjan Karanovic


Uloge: Ljuba Tadic, Aleksandar Bercek, Olga Spiridonovic, Sonja Divac, Bogdan Diklic, Gorica Popovic, Ljubomir Cipranic, Miodrag Radovanovic, Cedomir Petrovic, Viktor Starcic, Branko Cvejic, Milivoje Tomic, Slobodan Aligrudic, Rastko Tadic, Vesna Krajina…


Poznati glumac bezrazlozno napusta kazaliste i odlazi zivjeti na slepu kod prijatelja ladjara. Prica o njegovom postupku se siri pa ga njegovi prijatelji i poznanici isprva pokusavaju privoliti da se vrati poslu i obitelji, a kada u tome ne uspiju, privuceni pobunom i sami ostaju zivjeti na rijeci u potrazi za novim zivotom…




Hidden content
You need to react to this post in order to see this content.
 
Wolf 13

Wolf 13

MODERATOR
Učlanjen(a)
10.10.2009
Poruka
13.278
Miris poljskog cveca (1977) 720p RTS Remastered DD5.1 x264 by Wolf
(MKV)



Kod:
  https://www.imdb.com/title/tt0079171/
General
Unique ID : 69112434573046480044917032493663492350 (0x33FE921B306BA293988C13EAA77D98FE)
Complete name : Miris poljskog cveca (1977) 720p RTS Remastered DD5.1 x264 by Wolf.mkv
Format : Matroska
Format version : Version 4
File size : 1.10 GiB
Duration : 1 h 29 min
Overall bit rate : 1 758 kb/s
Encoded date : UTC 2019-02-01 22:40:08
Writing application : mkvmerge v30.1.0 ('Forever And More') 64-bit
Writing library : libebml v1.3.6 + libmatroska v1.4.9 / Lavf58.20.100

Video
ID : 1
Format : AVC
Format/Info : Advanced Video Codec
Format profile : [email protected]
Format settings : CABAC / 5 Ref Frames
Format settings, CABAC : Yes
Format settings, ReFrames : 5 frames
Codec ID : V_MPEG4/ISO/AVC
Duration : 1 h 29 min
Bit rate : 1 500 kb/s
Width : 1 280 pixels
Height : 720 pixels
Display aspect ratio : 16:9
Original display aspect rat : 1.407
Frame rate mode : Constant
Frame rate : 25.000 FPS
Color space : YUV
Chroma subsampling : 4:2:0
Bit depth : 8 bits
Scan type : Progressive
Bits/(Pixel*Frame) : 0.065
Stream size : 963 MiB (85%)
Title : Miris poljskog cveca (1977)
Writing library : x264 core 157 r2935 545de2f
Encoding settings : cabac=1 / ref=5 / deblock=1:-1:-1 / analyse=0x3:0x133 / me=umh / subme=10 / psy=1 / psy_rd=1.00:0.15 / mixed_ref=1 / me_range=24 / chroma_me=1 / trellis=2 / 8x8dct=1 / cqm=0 / deadzone=21,11 / fast_pskip=1 / chroma_qp_offset=-3 / threads=6 / lookahead_threads=1 / sliced_threads=0 / nr=0 / decimate=1 / interlaced=0 / bluray_compat=0 / constrained_intra=0 / bframes=5 / b_pyramid=2 / b_adapt=2 / b_bias=0 / direct=3 / weightb=1 / open_gop=0 / weightp=2 / keyint=250 / keyint_min=25 / scenecut=40 / intra_refresh=0 / rc_lookahead=60 / rc=2pass / mbtree=1 / bitrate=1500 / ratetol=1.0 / qcomp=0.60 / qpmin=0 / qpmax=69 / qpstep=4 / cplxblur=20.0 / qblur=0.5 / vbv_maxrate=300000 / vbv_bufsize=300000 / nal_hrd=none / filler=0 / ip_ratio=1.40 / aq=1:1.00
Language : Serbian
Default : Yes
Forced : No
Color range : Limited
Color primaries : BT.709
Transfer characteristics : BT.709
Matrix coefficients : BT.709

Audio
ID : 2
Format : E-AC-3
Format/Info : Enhanced AC-3
Commercial name : Dolby Digital Plus
Codec ID : A_EAC3
Duration : 1 h 29 min
Bit rate mode : Constant
Bit rate : 256 kb/s
Channel(s) : 6 channels
Channel layout : L R C LFE Ls Rs
Sampling rate : 48.0 kHz
Frame rate : 31.250 FPS (1536 SPF)
Compression mode : Lossy
Delay relative to video : -5 ms
Stream size : 164 MiB (15%)
Title : Miris poljskog cveca (1977)
Language : Serbian
Service kind : Complete Main
Default : Yes
Forced : No

Hidden content
You need to react to this post in order to see this content.



...Hvala nexa992
 
katamaniak

katamaniak

UREDNIK
Učlanjen(a)
24.03.2015
Poruka
4.714
Miris poljskog cveca (1977)























Hidden content
You need to react to this post in order to see this content.

 
Poslednja izmena od urednika:
Top