Šta je novo?

Ministarstvo ljubavi aka Ministry of Love (2016)

VIP
Učlanjen(a)
30.10.2010
Poruka
1.104
Ministarstvo Ljubavi (2016) DVDRip x264 - BD4YU

8TVF1J7.jpg


Kod:
http://www.imdb.com/title/tt5799780/


IZVORNO IME: Ministarstvo ljubavi
REDATELJ: Pavo Marinković | ŽANR: komedija
ULOGE: Stjepan Perić, Dražen Kuhn, Ecija Ojdanić, Olga Pakalović
TRAJANJE FILMA: 103 minuta | GODINA: 2016 | DRŽAVA: Hrvatska
POČETAK PRIKAZIVANJA: 03.11.2016
Datum prikazivanja je informativnog karaktera i kao takav je podložan promjenama.


SADRŽAJ FILMA:

Država je odlučila stati na kraj udovicama hrvatskih branitelja koje žive u izvanbračnim zajednicama, a primaju mirovine pokojnih muževa. Za hvatanje udovica u prijestupu na teren šalju potpuno pogrešnog čovjeka. Krešo je nezaposleni biolog, posrnulog samopouzdanja i u bračnoj krizi.

Film obiluje klasičnim zavrzlamama, neočekivanim obratima i hrpom smijeha, a svoju je premijeru imao na ovogodišnjem Pulskom filmskom festivalu gdje ga je publika ispratila s oduševljenjem.

TYuGBNf.jpg


9uSvAm0.jpg



Download
Hidden content
You need to react to this post in order to see this content.
 
UPLOADER
Učlanjen(a)
25.09.2009
Poruka
1.258
Ministarstvo ljubavi (2016) DVDRip.XviD-lujo
F3G2Iy9.gif


29.8.2016_16_01_05_MinistartsvoljubaviMANJE.JPG


Kod:
http://www.imdb.com/title/tt5799780/

Redatelj : Pavo Marinkovic
Uloge : Dražen Kuhn, Ecija Ojdanić, Olga Pakalovic


Država je odlučila stati na kraj udovicama hrvatskih branitelja koje žive u izvanbračnim zajednicama, a primaju
mirovine pokojnih muževa. Za hvatanje udovica u prijestupu na teren šalju potpuno pogrešnog čovjeka. Krešo je
nezaposleni biolog, posrnulog samopouzdanja i u bračnoj krizi.


9BVxYED.jpg


Ministarstvo ljubavi.2016.DVDRip.XviD-lujo.avi
Veličina datoteke : 897 Mb.


[Film]
Ispravan : Da [AVI]
Trajanje : 01:39:00
Potpun film : Da


[Video]
Rezolucija : 704x384 (1,83:1)
Kodek : XviD MPEG-4 codec
FPS : 25,00
Bitrate : 1139 Kbps
Faktor kvalitete : 0,17 b/px[/Video]
[Video]

[Audio]
Kodek : MPEG 1 or 2 Audio Layer 3 (MP3)
Broj kanala : 2
Sample rate : 48000 Hz
Bitrate : 128 Kbps[/Audio]
[Audio]
MEGA_resized.png

F3G2Iy9.gif


Kod:
https://mega.nz/#!T8FD1RYS!2KbZxub6d4d_J041hJUUcjOj82TdJcWYvAASuBixEbo
[/audio][/video]​
 
MODERATOR
Učlanjen(a)
10.10.2009
Poruka
13.307
Ministarstvo ljubavi (2016) DVDrip AC3 5.1 x264 by Wolf
(MKV) HQ

CNh86NK.jpg


Kod:
  https://www.imdb.com/title/tt5799780/

General
Unique ID : 339620379207223904048300149313248931491 (0xFF80817C5DDB032E31BEC912EA87AEA3)
Complete name : Ministarstvo ljubavi (2016) DVDrip AC3 5.1 x264 by Wolf.mkv
Format : Matroska
Format version : Version 4 / Version 2
File size : 1.21 GiB
Duration : 1 h 39 min
Overall bit rate : 1 753 kb/s
Encoded date : UTC 2018-12-11 16:11:00 / UTC 2018-12-11T13:19:58Z
Writing application : mkvmerge v29.0.0 ('Like It Or Not') 64-bit
Writing library : libebml v1.3.6 + libmatroska v1.4.9 / Lavf57.7.2

Video
ID : 1
Format : AVC
Format/Info : Advanced Video Codec
Format profile : [email protected]
Format settings : CABAC / 8 Ref Frames
Format settings, CABAC : Yes
Format settings, ReFrames : 8 frames
Codec ID : V_MPEG4/ISO/AVC
Duration : 1 h 39 min
Bit rate : 1 500 kb/s
Width : 720 pixels
Height : 576 pixels
Display aspect ratio : 16:9
Frame rate mode : Constant
Frame rate : 25.000 FPS
Standard : PAL
Color space : YUV
Chroma subsampling : 4:2:0
Bit depth : 8 bits
Scan type : Progressive
Bits/(Pixel*Frame) : 0.145
Stream size : 1.01 GiB (83%)
Title : Ministarstvo ljubavi (2016)
Writing library : x264 core 155 r2901 7d0ff22
Encoding settings : cabac=1 / ref=8 / deblock=1:-1:-1 / analyse=0x3:0x133 / me=umh / subme=9 / psy=1 / psy_rd=1.00:0.15 / mixed_ref=1 / me_range=16 / chroma_me=1 / trellis=2 / 8x8dct=1 / cqm=0 / deadzone=21,11 / fast_pskip=1 / chroma_qp_offset=-3 / threads=6 / lookahead_threads=1 / sliced_threads=0 / nr=0 / decimate=1 / interlaced=0 / bluray_compat=0 / constrained_intra=0 / bframes=3 / b_pyramid=2 / b_adapt=2 / b_bias=0 / direct=3 / weightb=1 / open_gop=0 / weightp=2 / keyint=250 / keyint_min=25 / scenecut=40 / intra_refresh=0 / rc_lookahead=60 / rc=2pass / mbtree=1 / bitrate=1500 / ratetol=1.0 / qcomp=0.60 / qpmin=0 / qpmax=69 / qpstep=4 / cplxblur=20.0 / qblur=0.5 / vbv_maxrate=300000 / vbv_bufsize=300000 / nal_hrd=none / filler=0 / ip_ratio=1.40 / aq=1:1.00
Language : Croatian
Default : Yes
Forced : No
Color range : Limited
Color primaries : BT.601 PAL
Transfer characteristics : BT.709
Matrix coefficients : BT.601
Statistics Tags Issue : mkvmerge v29.0.0 ('Like It Or Not') 64-bit 2018-12-11 16:11:00 / mkvmerge v29.0.0 ('Like It Or Not') 64-bit 2018-12-11 16:11:00 / UTC 2018-12-11T13:19:58Z
FromStats_BitRate : 1499960
FromStats_Duration : 01:38:41.000000000
FromStats_FrameCount : 148025
FromStats_StreamSize : 1110158083

Audio
ID : 2
Format : E-AC-3
Format/Info : Enhanced Audio Coding 3
Codec ID : A_EAC3
Duration : 1 h 39 min
Bit rate mode : Constant
Bit rate : 256 kb/s
Channel(s) : 6 channels
Channel positions : Front: L C R, Side: L R, LFE
Sampling rate : 48.0 kHz
Frame rate : 187.500 FPS (256 SPF)
Compression mode : Lossy
Delay relative to video : -5 ms
Stream size : 181 MiB (15%)
Title : Ministarstvo ljubavi (2016)
Language : Croatian
Service kind : Complete Main
Default : Yes
Forced : No
Statistics Tags Issue : mkvmerge v29.0.0 ('Like It Or Not') 64-bit 2018-12-11 16:11:00 / mkvmerge v29.0.0 ('Like It Or Not') 64-bit 2018-12-11 16:11:00 / UTC 2018-12-11T13:19:58Z
FromStats_BitRate : 256000
FromStats_Duration : 01:39:00.320000000
FromStats_FrameCount : 185635
FromStats_StreamSize : 190090240

epYscVA.png

Hidden content
You need to react to this post in order to see this content.
tpy6fTd.png

IRWGIfz.jpg
 
Top