Šta je novo?

Maratonci trce pocasni krug aka The Marathon Family (1982)

  • Začetnik teme Nikola096
  • Datum pokretanja
Nikola096

Nikola096

Učlanjen(a)
13.12.2012
Poruka
328
Maratonci trce pocasni krug (1982) 1080p - Restaurirana verzija By VIP Kinoteka WEB-DL



Priča se događa u vremenu između dva rata (1935). U familiji Topalović, koju sačinjava šest generacija muškaraca – najmlađi ima 25 godina a najstariji 120 – dolazi do velikih sukoba, jer mladi potomak ne želi da se bavi pogrebničkim zanatom, koji decenijama, s kolena na koleno, drži njegova porodica. Proizvodnja mrtvačkih sanduka je sve unosnija, uvodi se nova tehnologija, sahranjuje se brže i lakše, nastupa vreme krematorijuma. Ali najmlađeg člana porodice Mirka (Bogdan Diklić) sve to ne zanima; on želi da se bavi filmom, zaluđen tom idejom od strane svog najboljeg prijatelja Đenke. Mirko je zaljubljen u Kristinu, koja ne mari za njega i zaljubljena je u Đenku. Kristinin otac, Bili Piton, nabavljač mrtvačkih sanduka za firmu Topalovića „Dugo konačište“, hoće da utera stari dug i ucenjuje porodicu. On traži veći udeo u zaradi, pravičnu podelu u poslu i dobiti ili da uda svoju ćerku jedinicu za Mirka a da dug uđe kao njegov miraz, odnosno suvlasništvo u firmi. Tako dolazi do sukoba ove dve porodice. U tom obračunu dozvoljena su sva sredstva. To je američki gangsterizam na balkanski način… Iako je Dušan Kovačević napisao istoimenu pozorišnu predstavu po kojoj je film snimljen, radnja filma nije potpuno istovetna sa pozorišnom predstavom. Pozorišna predstava ima radnju koja se dešava u komunističkoj Srbiji, početkom sedamdesetih godina dvadesetog veka, i ima elemente satire komunizma. Drama je 2013. režirana u Zvedara teatru u ženskoj podeli uloga. Osim filma i predstave 2008. godine je napravljen istoimeni mjuzikl. U filmu se kao detalj iz tonskog filma pojavljuje pesma „Svi vi što maštate o sreći“ koju izvodi Milan Timotić.



Hidden content
You need to react to this post in order to see this content.






 
Wolf 13

Wolf 13

MODERATOR
Učlanjen(a)
10.10.2009
Poruka
13.278
Maratonci trce pocasni krug (1982) VIP Kinoteka Remastered 1080p E-AC3 x264 by Wolf
(MKV)



Kod:
 https://www.imdb.com/title/tt0084302/
General
Unique ID : 160786657738231835548368070884698208947 (0x78F66245EEF89DF41CA4AA5FCB89BAB3)
Complete name : Maratonci trce pocasni krug (1982) VIP Kinoteka Remastered E-AC3 x264 by Wolf.mkv
Format : Matroska
Format version : Version 4 / Version 2
File size : 1.13 GiB
Duration : 1 h 31 min
Overall bit rate : 1 757 kb/s
Encoded date : UTC 2018-09-03 16:00:04 / UTC 2018-09-03T12:42:32Z
Writing application : mkvmerge v26.0.0 ('In The Game') 64-bit
Writing library : libebml v1.3.6 + libmatroska v1.4.9 / Lavf57.7.2

Video
ID : 1
Format : AVC
Format/Info : Advanced Video Codec
Format profile : High [email protected]
Format settings : CABAC / 4 Ref Frames
Format settings, CABAC : Yes
Format settings, ReFrames : 4 frames
Codec ID : V_MPEG4/ISO/AVC
Duration : 1 h 31 min
Bit rate : 1 500 kb/s
Width : 1 868 pixels
Height : 1 080 pixels
Display aspect ratio : 1.730
Frame rate mode : Constant
Frame rate : 25.000 FPS
Color space : YUV
Chroma subsampling : 4:2:0
Bit depth : 10 bits
Scan type : Progressive
Bits/(Pixel*Frame) : 0.030
Stream size : 962 MiB (83%)
Title : Maratonci trce pocasni krug (1982)
Writing library : x264 core 155 r2901 7d0ff22
Encoding settings : cabac=1 / ref=3 / deblock=1:-1:-1 / analyse=0x3:0x113 / me=hex / subme=7 / psy=1 / psy_rd=1.00:0.15 / mixed_ref=1 / me_range=16 / chroma_me=1 / trellis=1 / 8x8dct=1 / cqm=0 / deadzone=21,11 / fast_pskip=1 / chroma_qp_offset=-3 / threads=6 / lookahead_threads=1 / sliced_threads=0 / nr=0 / decimate=1 / interlaced=0 / bluray_compat=0 / constrained_intra=0 / bframes=3 / b_pyramid=2 / b_adapt=1 / b_bias=0 / direct=1 / weightb=1 / open_gop=0 / weightp=2 / keyint=250 / keyint_min=25 / scenecut=40 / intra_refresh=0 / rc_lookahead=40 / rc=2pass / mbtree=1 / bitrate=1500 / ratetol=1.0 / qcomp=0.60 / qpmin=0 / qpmax=81 / qpstep=4 / cplxblur=20.0 / qblur=0.5 / vbv_maxrate=150000 / vbv_bufsize=187500 / nal_hrd=none / filler=0 / ip_ratio=1.40 / aq=1:1.00
Language : Serbian
Default : Yes
Forced : No
Color range : Limited
Color primaries : BT.709
Transfer characteristics : BT.709
Matrix coefficients : BT.709
Statistics Tags Issue : mkvmerge v26.0.0 ('In The Game') 64-bit 2018-09-03 16:00:04 / mkvmerge v26.0.0 ('In The Game') 64-bit 2018-09-03 16:00:04 / UTC 2018-09-03T12:42:32Z
FromStats_BitRate : 1499460
FromStats_Duration : 01:31:42.640000000
FromStats_FrameCount : 137566
FromStats_StreamSize : 1031373649

Audio
ID : 2
Format : E-AC-3
Format/Info : Enhanced Audio Coding 3
Codec ID : A_EAC3
Duration : 1 h 31 min
Bit rate mode : Constant
Bit rate : 256 kb/s
Channel(s) : 6 channels
Channel positions : Front: L C R, Side: L R, LFE
Sampling rate : 48.0 kHz
Frame rate : 187.500 FPS (256 SPF)
Compression mode : Lossy
Delay relative to video : -21 ms
Stream size : 168 MiB (15%)
Title : Maratonci trce pocasni krug (1982)
Language : Serbian
Service kind : Complete Main
Default : Yes
Forced : No
Statistics Tags Issue : mkvmerge v26.0.0 ('In The Game') 64-bit 2018-09-03 16:00:04 / mkvmerge v26.0.0 ('In The Game') 64-bit 2018-09-03 16:00:04 / UTC 2018-09-03T12:42:32Z
FromStats_BitRate : 256000
FromStats_Duration : 01:31:42.432000000
FromStats_FrameCount : 171951
FromStats_StreamSize : 176077824

Hidden content
You need to react to this post in order to see this content.

 
M

maja_jevtic

UREDNIK
Učlanjen(a)
27.06.2011
Poruka
10.127
Maratonci trce pocasni krug 1982 HDTV 720p x264










:info:








Hidden content
You need to react to this post in order to see this content.

 
Poslednja izmena od urednika:
Top