Šta je novo?
Član
Učlanjen(a)
09.05.2011
Poruka
7.549
=
Mancation (2012) 1080p BluRay x264-LiViDiTY
File Size: 6.55 GiB

=

mancation.jpg



General
Complete name : ly-mancation1080.mkv
Format : Matroska
Format version : Version 4 / Version 2
File size : 6.55 GiB
Duration : 1h 40mn
Overall bit rate : 9 366 Kbps
Encoded date : UTC 2013-08-16 16:08:12
Writing application : mkvmerge v6.3.0 ('You can't stop me!') built on Jun 28 2013 20:09:41
Writing library : libebml v1.3.0 + libmatroska v1.4.0

Video
ID : 1
Format : AVC
Format/Info : Advanced Video Codec
Format profile : High@L4.1
Format settings, CABAC : Yes
Format settings, ReFrames : 4 frames
Codec ID : V_MPEG4/ISO/AVC
Duration : 1h 40mn
Bit rate : 8 601 Kbps
Width : 1 920 pixels
Height : 1 080 pixels
Display aspect ratio : 16:9
Frame rate mode : Constant
Frame rate : 23.976 fps
Color space : YUV
Chroma subsampling : 4:2:0
Bit depth : 8 bits
Scan type : Progressive
Bits/(Pixel*Frame) : 0.173
Stream size : 5.88 GiB (90%)
Writing library : x264 core 135 r2345kMod f0c1c53
Default : Yes
Forced : No

Audio
ID : 2
Format : DTS
Format/Info : Digital Theater Systems
Mode : 16
Format settings, Endianness : Big
Codec ID : A_DTS
Duration : 1h 40mn
Bit rate mode : Constant
Bit rate : 768 Kbps
Channel(s) : 6 channels
Channel positions : Front: L C R, Side: L R, LFE
Sampling rate : 48.0 KHz
Bit depth : 24 bits
Compression mode : Lossy
Stream size : 550 MiB (8%)
Language : English
Default : Yes
Forced : No

Kod:
http://www.imdb.com/title/tt1866197/


ly-mancation1080s.jpg



DOWNLOAD:
Kod:
http://uploaded.net/file/z7dym41g/ly-mancation1080.part1.rar
http://uploaded.net/file/ii84onv6/ly-mancation1080.part2.rar
http://uploaded.net/file/9r6wh9kh/ly-mancation1080.part3.rar
http://uploaded.net/file/9rmgs8m2/ly-mancation1080.part4.rar
http://uploaded.net/file/5s6x0txx/ly-mancation1080.part5.rar
http://uploaded.net/file/svlcltwi/ly-mancation1080.part6.rar
http://uploaded.net/file/a1zpvwww/ly-mancation1080.part7.rar

http://rapidgator.net/file/c3b9e566fec16631ab02fa8b8fe14292/ly-mancation1080.part1.rar.html
http://rapidgator.net/file/e24291cab9ebac79051a0e1f69f7cfad/ly-mancation1080.part2.rar.html
http://rapidgator.net/file/08a128d08d0d4f3f96a89c211f29c9d8/ly-mancation1080.part3.rar.html
http://rapidgator.net/file/a11d421c4d695dc0ca1aa9c7582e5ffd/ly-mancation1080.part4.rar.html
http://rapidgator.net/file/a086a6028827579ca308be17b5587b8e/ly-mancation1080.part5.rar.html
http://rapidgator.net/file/ea47528e014f1aac33c06d86dfee5a83/ly-mancation1080.part6.rar.html
http://rapidgator.net/file/d67c9438a98eadaba703c8b1b93e0c71/ly-mancation1080.part7.rar.html

http://ryushare.com/o3yk6u5yop18/ly-mancation1080.part1.rar
http://ryushare.com/xh2u9d3j5il9/ly-mancation1080.part2.rar
http://ryushare.com/q6gjcua087gt/ly-mancation1080.part3.rar
http://ryushare.com/rsa886851scc/ly-mancation1080.part4.rar
http://ryushare.com/7vi9s2ycq29s/ly-mancation1080.part5.rar
http://ryushare.com/gufnzlm3tzj4/ly-mancation1080.part6.rar
http://ryushare.com/8eah0tlzxr3r/ly-mancation1080.part7.rar

http://lumfile.com/bi44o81xk269/ly-mancation1080.part1.rar.html
http://lumfile.com/dgl7sp7mnr02/ly-mancation1080.part2.rar.html
http://lumfile.com/01rx8x7kxrlu/ly-mancation1080.part3.rar.html
http://lumfile.com/0159p7x7lzcj/ly-mancation1080.part4.rar.html
http://lumfile.com/x3hyv6d65w0x/ly-mancation1080.part5.rar.html
http://lumfile.com/3t3b3snt1oyv/ly-mancation1080.part6.rar.html
http://lumfile.com/dclrpg4o5glq/ly-mancation1080.part7.rar.html
 
Top