Šta je novo?
SerbianForum

Dobrodošli na SerbianForum.org, mjesto na kojem možete pronaći apsolutno sve, mjesto druženja i odlične zabave!

Making the Rules (2014)

  • Začetnik teme CyberWarez
  • Datum pokretanja
CyberWarez

CyberWarez

Član
************************************************************
Making the Rules (2014) HDRip XviD AC3 RARBG
File Size: 1.08 GiB

************************************************************



Title: Making the Rules
Year: 2014
Genre: Drama, Romance
Rating: N/A (N/A votes)
Runtime: 78 min
Director: Jimbo Lee
Cast: Jaime Pressly, Robin Thicke, Tygh Runyan, Joey Lauren Adams
Plot:
Kod:
The life of Abby is centered around the fast-paced days of being a successful sous-chef and her marriage to Matt, a loving husband. A sudden accident in the kitchen forces her to leave the ...
INFO:

General
Complete name : Making.the.Rules.2014.HDRip.XviD.AC3-RARBG.avi
Format : AVI
Format/Info : Audio Video Interleave
File size : 1.08 GiB
Duration : 1h 17mn
Overall bit rate : 1 977 Kbps
Movie name : RARBG.COM - Making.the.Rules.2014.HDRip.XviD.AC3-RARBG
Writing library : VirtualDub build 35491/release
Comment : RARBG.COM - Making.the.Rules.2014.HDRip.XviD.AC3-RARBG

Video
ID : 0
Format : MPEG-4 Visual
Format profile : Simple@L5
Format settings, BVOP : No
Format settings, QPel : No
Format settings, GMC : No warppoints
Format settings, Matrix : Default (H.263)
Codec ID : XVID
Codec ID/Hint : XviD
Duration : 1h 17mn
Bit rate : 1 584 Kbps
Width : 720 pixels
Height : 400 pixels
Display aspect ratio : 16:9
Frame rate : 23.976 fps
Color space : YUV
Chroma subsampling : 4:2:0
Bit depth : 8 bits
Scan type : Progressive
Compression mode : Lossy
Bits/(Pixel*Frame) : 0.229
Stream size : 882 MiB (80%)
Writing library : Lavc55.55.104

Audio
ID : 1
Format : AC-3
Format/Info : Audio Coding 3
Mode extension : CM (complete main)
Format settings, Endianness : Big
Codec ID : 2000
Duration : 1h 17mn
Bit rate mode : Constant
Bit rate : 384 Kbps
Channel(s) : 6 channels
Channel positions : Front: L C R, Side: L R, LFE
Sampling rate : 48.0 KHz
Bit depth : 16 bits
Compression mode : Lossy
Stream size : 214 MiB (19%)
Alignment : Aligned on interleaves
Interleave, duration : 42 ms (1.00 video frame)
Interleave, preload duration : 512 ms
iMDB:
Kod:
http://www.imdb.com/title/tt2287030/
Movie Trailer:
Kod:
http://www.youtube.com/watch?v=hr_it-RHCPM






Single Extraction | No Password | Interchangeable Links: | Working 100% |


DOWNLOAD SINGLE LINKS:
Kod:
http://ul.to/ozxpurk0/MtR2014HDRip.RARBG.rar
http://rapidgator.net/file/44f0a5111925f4518ad60447b4be4829/MtR2014HDRip.RARBG.rar.html
http://fileom.com/ng43e28b7pwv/MtR2014HDRip.RARBG.rar.html
https://www.oboom.com/K0YAXAJL/MtR2014HDRip.RARBG.rar
 
Top