Šta je novo?
Član
Učlanjen(a)
09.05.2011
Poruka
7.549
=
Madison County (2011) 720p UNRATED Bluray x264-BARC0DE
File Size: 4.23 GiB

=

coffin.jpg



General
Complete name : Madison.County.2011.720p.UNRATED.Bluray.X264-BARC0DE.mkv
Format : Matroska
Format version : Version 2
File size : 4.23 GiB
Duration : 1h 22mn
Overall bit rate : 7 376 Kbps
Encoded date : UTC 2013-02-17 10:22:12
Writing application : mkvmerge v5.8.0 ('No Sleep / Pillow') built on Sep 2 2012 15:37:04
Writing library : libebml v1.2.3 + libmatroska v1.3.0

Video
ID : 1
Format : AVC
Format/Info : Advanced Video Codec
Format profile : [email protected]
Format settings, CABAC : Yes
Format settings, ReFrames : 4 frames
Muxing mode : Header stripping
Codec ID : V_MPEG4/ISO/AVC
Duration : 1h 22mn
Bit rate : 5 720 Kbps
Nominal bit rate : 6 052 Kbps
Width : 1 280 pixels
Height : 512 pixels
Display aspect ratio : 2.500
Frame rate mode : Constant
Frame rate : 23.976 fps
Color space : YUV
Chroma subsampling : 4:2:0
Bit depth : 8 bits
Scan type : Progressive
Bits/(Pixel*Frame) : 0.364
Stream size : 3.28 GiB (78%)
Writing library : x264 core 112
Language : English
Default : Yes
Forced : No
Color primaries : BT.709
Transfer characteristics : BT.709
Matrix coefficients : BT.709

Audio
ID : 2
Format : DTS
Format/Info : Digital Theater Systems
Mode : 16
Format settings, Endianness : Big
Muxing mode : Header stripping
Codec ID : A_DTS
Duration : 1h 22mn
Bit rate mode : Constant
Bit rate : 1 509 Kbps
Channel(s) : 6 channels
Channel positions : Front: L C R, Side: L R, LFE
Sampling rate : 48.0 KHz
Bit depth : 16 bits
Compression mode : Lossy
Stream size : 885 MiB (20%)
Default : Yes
Forced : No

Kod:

vlcsnap-2013-04-01-21h45.png


vlcsnap-2013-04-01-21h45.png


vlcsnap-2013-04-01-21h52.png



DOWNLOAD:
Kod:
http://www.netload.in/datei7bgoSC8st3/Madison.County.2011.720p.part1.rar.htm
http://www.netload.in/dateiKXIzX7M2F4/Madison.County.2011.720p.part2.rar.htm
http://www.netload.in/dateit9jEJmCdGn/Madison.County.2011.720p.part3.rar.htm
http://www.netload.in/dateiRvIa9wsKNg/Madison.County.2011.720p.part4.rar.htm
http://www.netload.in/dateiKAFnlA7E3H/Madison.County.2011.720p.part5.rar.htm

http://rapidgator.net/file/df4551cfdf4093982bc14dfa6bb4347e/Madison.County.2011.720p.part1.rar.html
http://rapidgator.net/file/dead6683c361fc1946550697a579d6d6/Madison.County.2011.720p.part2.rar.html
http://rapidgator.net/file/01a02ccf692b1c11b8d17a3795f774ea/Madison.County.2011.720p.part3.rar.html
http://rapidgator.net/file/adde76cbd344b48a5f4af1a379bcd024/Madison.County.2011.720p.part4.rar.html
http://rapidgator.net/file/23943fc78f935646ffeee3a60d7a0db9/Madison.County.2011.720p.part5.rar.html

http://uploaded.net/file/xb94koji/Madison.County.2011.720p.part1.rar
http://uploaded.net/file/nq4qwvdd/Madison.County.2011.720p.part2.rar
http://uploaded.net/file/2zw6gguv/Madison.County.2011.720p.part3.rar
http://uploaded.net/file/o1m05vh0/Madison.County.2011.720p.part4.rar
http://uploaded.net/file/vhro46f1/Madison.County.2011.720p.part5.rar

http://lumfile.com/lhu3l2xkm8vz/Madison.County.2011.720p.part1.rar.html
http://lumfile.com/k9klt9fzgkmj/Madison.County.2011.720p.part2.rar.html
http://lumfile.com/82pi73pvkb0r/Madison.County.2011.720p.part3.rar.html
http://lumfile.com/3xb696fjebdk/Madison.County.2011.720p.part4.rar.html
http://lumfile.com/wjaicg2crib4/Madison.County.2011.720p.part5.rar.html
 
Top