Šta je novo?

Machine Gun Preacher (2011)

Član
Učlanjen(a)
09.05.2011
Poruka
7.549
************************************************************
Machine Gun Preacher (2011) 720p Bluray DTS x264-ESiR
File Size: 7.91 GiB

************************************************************

machine.jpg


INFO:

General
Complete name : Machine.Gun.Preacher.2011.720p.Bluray.DTS.x264-ESiR.mkv
Format : Matroska
Format version : Version 2
File size : 7.91 GiB
Duration : 2h 8mn
Overall bit rate : 8 800 Kbps
Movie name : Machine.Gun.Preacher.2011.720p.Bluray.DTS.x264-ESiR
Encoded date : UTC 2012-03-11 23:38:39
Writing application : mkvmerge v5.3.0 ('I could have danced') built on Feb 9 2012 10:38:07
Writing library : libebml v1.2.3 + libmatroska v1.3.0

Video
ID : 1
Format : AVC
Format/Info : Advanced Video Codec
Format profile : High@L4.1
Format settings, CABAC : Yes
Format settings, ReFrames : 9 frames
Muxing mode : Header stripping
Codec ID : V_MPEG4/ISO/AVC
Duration : 2h 8mn
Bit rate : 7 116 Kbps
Width : 1 280 pixels
Height : 534 pixels
Display aspect ratio : 2.40:1
Frame rate mode : Constant
Frame rate : 24.000 fps
Color space : YUV
Chroma subsampling : 4:2:0
Bit depth : 8 bits
Scan type : Progressive
Bits/(Pixel*Frame) : 0.434
Stream size : 6.40 GiB (81%)
Title : Machine Gun Preacher (2011)
Writing library : x264 core 120 r2164 da19765
Language : English
Default : Yes
Forced : No

Audio
ID : 2
Format : DTS
Format/Info : Digital Theater Systems
Mode : 16
Format settings, Endianness : Big
Muxing mode : Header stripping
Codec ID : A_DTS
Duration : 2h 8mn
Bit rate mode : Constant
Bit rate : 1 509 Kbps
Channel(s) : 6 channels
Channel positions : Front: L C R, Side: L R, LFE
Sampling rate : 48.0 KHz
Bit depth : 24 bits
Compression mode : Lossy
Stream size : 1.36 GiB (17%)
Title : DTS 5.1 @ 1.5 Mbps
Language : English
Default : Yes
Forced : No

iMDB:
Kod:
http://www.imdb.com/title/tt1586752/

mgp.png


Single Extraction | No Password | Interchangeable Links: | Working 100% |

Kod:
http://uploaded.net/file/a4iabhn7/MGP11.720p.ESiR.part01.rar
http://uploaded.net/file/a8dliucu/MGP11.720p.ESiR.part02.rar
http://uploaded.net/file/1wb7zalp/MGP11.720p.ESiR.part03.rar
http://uploaded.net/file/7jdssctd/MGP11.720p.ESiR.part04.rar
http://uploaded.net/file/lys7dp6z/MGP11.720p.ESiR.part05.rar
http://uploaded.net/file/20ty78k4/MGP11.720p.ESiR.part06.rar
http://uploaded.net/file/2fla3h8w/MGP11.720p.ESiR.part07.rar
http://uploaded.net/file/24fi8toe/MGP11.720p.ESiR.part08.rar
http://uploaded.net/file/cvf9rad0/MGP11.720p.ESiR.part09.rar

http://rapidgator.net/file/8a53fed8d9debeef04de0793c9b3caaa/MGP11.720p.ESiR.part01.rar.html
http://rapidgator.net/file/4d72b4d4c389cf1ad5af20cbb22ed71f/MGP11.720p.ESiR.part02.rar.html
http://rapidgator.net/file/fb563758c6dfa788314520b2b17888c1/MGP11.720p.ESiR.part03.rar.html
http://rapidgator.net/file/de6e42fd604eafb11b93d61a2454d297/MGP11.720p.ESiR.part04.rar.html
http://rapidgator.net/file/39ff2e632cffaf6e4415bee17e52c28d/MGP11.720p.ESiR.part05.rar.html
http://rapidgator.net/file/d95b84e01226b85c9c0cd8e0d30f5282/MGP11.720p.ESiR.part06.rar.html
http://rapidgator.net/file/269cdd2d14a7480474920241aefd4d60/MGP11.720p.ESiR.part07.rar.html
http://rapidgator.net/file/5ef143d54f1ddfee4d57d2924c37a088/MGP11.720p.ESiR.part08.rar.html
http://rapidgator.net/file/27e20ac8fabbd5529b70a99d212d65f5/MGP11.720p.ESiR.part09.rar.html

http://k2s.cc/file/808b4c6d60617/MGP11.720p.ESiR.part01.rar
http://k2s.cc/file/09fefdf64d736/MGP11.720p.ESiR.part02.rar
http://k2s.cc/file/43ff7652c3f2b/MGP11.720p.ESiR.part03.rar
http://k2s.cc/file/84711fe083abb/MGP11.720p.ESiR.part04.rar
http://k2s.cc/file/9eb925c246e24/MGP11.720p.ESiR.part05.rar
http://k2s.cc/file/1521db166e549/MGP11.720p.ESiR.part06.rar
http://k2s.cc/file/b63ccec4b9fa4/MGP11.720p.ESiR.part07.rar
http://k2s.cc/file/73e48f1326b09/MGP11.720p.ESiR.part08.rar
http://k2s.cc/file/3ef20f83ef755/MGP11.720p.ESiR.part09.rar

https://www.oboom.com/JPRBX41F/MGP11.720p.ESiR.part01.rar
https://www.oboom.com/Y4228H0P/MGP11.720p.ESiR.part02.rar
https://www.oboom.com/8DFJLENR/MGP11.720p.ESiR.part03.rar
https://www.oboom.com/NTW18LSI/MGP11.720p.ESiR.part04.rar
https://www.oboom.com/F40TRDZ1/MGP11.720p.ESiR.part05.rar
https://www.oboom.com/909R666X/MGP11.720p.ESiR.part06.rar
https://www.oboom.com/2M34IGIP/MGP11.720p.ESiR.part07.rar
https://www.oboom.com/FONB5BK4/MGP11.720p.ESiR.part08.rar
https://www.oboom.com/Q1UT4VVI/MGP11.720p.ESiR.part09.rar
 
Top