Šta je novo?

Lutalica (1987)

  • Začetnik teme Torrent Maniak
  • Datum pokretanja
Torrent Maniak

Torrent Maniak

MODERATOR
Učlanjen(a)
02.05.2009
Poruka
29.299
Lutalica (1987)


















Reč je o muzičkoj drami iz 1987. godine koja je čini mi se nekako malo eksploatisana kod nas i retko se prikazuje na televiziji. Glavnu ulogu u filmu igra Lidija Vukićević – ona je lepa, mlada ciganka koja peva onako iz duše i koja iz male sredine dolazi u grad da gradi pevačku karijeru. Na svome putu doživeće puno uspona i padova, radosti i razočarenja ali sa takvim glasom i stasom, uspeh je neminovan. Pored Lidije, pravo je zadovoljstvo videti i Bata Kandu, genija na harmonici koji u filmu igra nikog drugog do Bata Kandu – šefa orkestra. Tu su još i značajna imena poput Bate Živojinovića, Milana Štrljića, Jelene Žigon, Mikija Krstovića, Snežane Savić.




General
Complete name : G:\Domaci filmovi\Velimir Bata Zivjinovic\1981 - 1990\71 Lutalica (1987)\Lutalica (1987).avi
Format : AVI
Format/Info : Audio Video Interleave
File size : 622 MiB
Duration : 1 h 39 min
Overall bit rate mode : Variable
Overall bit rate : 876 kb/s
Movie name : Lutalica.1987

Video
ID : 0
Format : MPEG-4 Visual
Format settings : BVOP1
Format settings, BVOP : 1
Format settings, QPel : No
Format settings, GMC : No warppoints
Format settings, Matrix : Default (H.263)
Muxing mode : Packed bitstream
Codec ID : DX50
Codec ID/Hint : DivX 5
Duration : 1 h 39 min
Bit rate : 791 kb/s
Nominal bit rate : 4 000 kb/s
Width : 480 pixels
Height : 352 pixels
Display aspect ratio : 4:3
Frame rate : 23.976 (24000/1001) FPS
Color space : YUV
Chroma subsampling : 4:2:0
Bit depth : 8 bits
Scan type : Progressive
Compression mode : Lossy
Bits/(Pixel*Frame) : 0.195
Stream size : 561 MiB (90%)
Title : Video
Writing library : DivX 5.2.1 Alpha (UTC 2004-09-08)

Audio
ID : 1
Format : MPEG Audio
Format version : Version 1
Format profile : Layer 3
Format settings : Joint stereo / MS Stereo
Codec ID : 55
Codec ID/Hint : MP3
Duration : 1 h 39 min
Bit rate mode : Variable
Bit rate : 64.0 kb/s
Channel(s) : 2 channels
Sampling rate : 44.1 kHz
Compression mode : Lossy
Stream size : 51.8 MiB (8%)
Alignment : Aligned on interleaves
Interleave, duration : 26 ms (0.63 video frame)
Interleave, preload duratio : 494 ms
Title : Audio
Language : Undefined




















Hidden content
You need to react to this post in order to see this content.
 
Poslednja izmena:
Top