Šta je novo?

Les Sous-doues 1980

Član
Učlanjen(a)
28.12.2009
Poruka
1.093
LES SOUS-DOUES (1980)




:info:

Kod:
http://www.imdb.com/title/tt0081541/

:download:

Kod:
http://www.podnapisi.net/sous-dou-s-les-1980-titlovi-p255459
http://rapidshare.com/files/15266248/LesSousDouesPassentLeBac.part01.rar
http://rapidshare.com/files/15267209/LesSousDouesPassentLeBac.part02.rar
http://rapidshare.com/files/15268062/LesSousDouesPassentLeBac.part03.rar
http://rapidshare.com/files/15268941/LesSousDouesPassentLeBac.part04.rar
http://rapidshare.com/files/15269771/LesSousDouesPassentLeBac.part05.rar
http://rapidshare.com/files/15270683/LesSousDouesPassentLeBac.part06.rar
http://rapidshare.com/files/15271520/LesSousDouesPassentLeBac.part07.rar
http://rapidshare.com/files/15272395/LesSousDouesPassentLeBac.part08.rar
http://rapidshare.com/files/15273251/LesSousDouesPassentLeBac.part09.rar
http://rapidshare.com/files/15274183/LesSousDouesPassentLeBac.part10.rar
http://rapidshare.com/files/15275151/LesSousDouesPassentLeBac.part11.rar
http://rapidshare.com/files/15275761/LesSousDouesPassentLeBac.part12.rar
 
Učlanjen(a)
04.12.2010
Poruka
2
Les sous-doués (1980)

1980_Les_Sous_doues.jpg
ž




Kod:
http://rapidshare.com/files/252710193/Les_sous-dou_s__1980_.by.zwekan_crostuff.net.part1.rar
http://rapidshare.com/files/252784520/Les_sous-dou_s__1980_.by.zwekan_crostuff.net.part2.rar
http://rapidshare.com/files/252925277/Les_sous-dou_s__1980_.by.zwekan_crostuff.net.part3.rar
http://rapidshare.com/files/252980428/Les_sous-dou_s__1980_.by.zwekan_crostuff.net.part4.rar
http://rapidshare.com/files/253042093/Les_sous-dou_s__1980_.by.zwekan_crostuff.net.part5.rar
http://rapidshare.com/files/253098283/Les_sous-dou_s__1980_.by.zwekan_crostuff.net.part6.rar
http://rapidshare.com/files/253138266/Les_sous-dou_s__1980_.by.zwekan_crostuff.net.part7.rar
http://rapidshare.com/files/253147750/Les_sous-dou_s__1980_.by.zwekan_crostuff.net.part8.rar



pasword


Kod:
zwekan@crostuff.net





Info




General
Complete name : Les sous-doués (1980)
Format : AVI
Format/Info : Audio Video Interleave
File size : 697 MiB
Duration : 1h 27mn
Overall bit rate : 1 115 Kbps
Writing application : Nandub v1.0rc2
Writing library : Nandub build 1853/release

Video
Format : MPEG-4 Visual
Format settings, BVOP : No
Format settings, QPel : No
Format settings, GMC : No warppoints
Format settings, Matrix : Default
Codec ID : XVID
Codec ID/Hint : XviD
Duration : 1h 27mn
Bit rate : 974 Kbps
Width : 640 pixels
Height : 384 pixels
Display aspect ratio : 1.667
Frame rate : 25.000 fps
Resolution : 24 bits
Colorimetry : 4:2:0
Scan type : Progressive
Bits/(Pixel*Frame) : 0.159
Stream size : 609 MiB (87%)

Audio
Format : MPEG Audio
Format version : Version 1
Format profile : Layer 3
Codec ID : 55
Codec ID/Hint : MP3
Duration : 1h 27mn
Bit rate mode : Constant
Bit rate : 128 Kbps
Channel(s) : 2 channels
Sampling rate : 48.0 KHz
Resolution : 16 bits
Stream size : 80.0 MiB (11%)
Alignment : Aligned on interleaves
Interleave, duration : 24 ms (0.60 video frame)
Interleave, preload duration : 480 ms
Writing library : LAME3.93
Encoding settings : CBR





The Under-Gifted (1980) - IMDb
 
Top