Šta je novo?

Leptirica aka The She-Butterfly (1973)

  • Začetnik teme Torrent Maniak
  • Datum pokretanja
Torrent Maniak

Torrent Maniak

MODERATOR
Učlanjen(a)
02.05.2009
Poruka
29.304
Leptirica (1973)




















Opis: Leptirica je srpsko/jugoslavenski horor film iz 1973. koji je režirao i napisao Đođre Kadijević prema pripovetci Milovana Glišića. Glavne uloge tumače Petar Božović, Mirjana Nikolić, Slobodan Perović, Vasja Stanković i Tanasije Uzunović. Radnja se odvija u jednom zabačenom selu u kojem se mladić Strahinja silom prilika oženi za djevojku Radojku, koja se ispostavi kao vampir. Lepitirica je stekla kultni status i zanimanje jer je bila prvi srpski horor film,odnosno jedan od retkih primera filmova fantastike na području jugoslovenske kinematografije. Stari mlinar čuje čudne zvukove koji dolaze iz šume. Dok spava, mlinarski točak iznenada prestaje da se okreće, a čudno čovekoliko stvorenje sa crnim rukama i dugim zubima i noktima ga ujeda za vrat. Posle uvodne scene, film se prebacuje na romansu između siromašnog mladića Strahinje (Božović) i lepe devojke Radojke (Nikolić). Radojka je kćerka gazde Živana (Perović), koji ne dozvoljava Radojki da se uda za Strahinju. Razočaran, Strahinja napušta svoje selo i odlazi u Zarožje. Nailazi na seljake koji pričaju o ukletom mlinu i prihvata njihovu ponudu da postane novi mlinar. Strahinja provodi noć u vodenici i preživljava napad stvorenja, saznavši njegovo ime - Sava Savanović. Seljani posećuju najstariju ženu u susednom selu i pitaju je da li se u blizini nalazi grob nekoga po imenu Sava Savanović. Nakon što su pronašli mesto gde je njegovo telo sahranjeno, probijaju ga kocem kroz zatvoren kovčeg, ali iz njega uspeva da izleti leptir. Seljani pomažu Strahinji da odvede Radojku od kuće i da je dovede u Zarožje. Tokom noći, dok se seljani pripremaju za svadbu, Strahinja se kradom uvlači u sobu svoje buduće neveste dok ona spava. Dok je svlači, otkriva krvavu rupu pod njenim grudima i shvata da je to rupa od kolca kojim su proboli Savin kovčeg. Radojka otvara oči i transformiše se u odvratno dlakavo stvorenje koje uzjaše Strahinju i vodi ga do Savinog groba. Tamo ga tera da izvuče kolac iz groba. Stvorenje nestaje, dok iz groba izlazi isto takvo stvorenje koje Strahinja nabija na kolac. Film se završava scenom gde Strahinja leži nepomično na zemlji, dok leptir maše krilima na Strahinjinoj glavi.

Uloge:
Mirjana Nikolić Radojka
Petar Božović Strahinja
Slobodan Perović Živan
Vasja Stanković Kmet
Tanasije Uzunović Pop
Toma Kuruzović Vule
Bogoljub Petrović Ćebo
Aleksandar Stojković Purko
Ivan Đurđević Sredoje
Branko Petković

Režija: Đorđe Kadijević

Žanr: Horor, Drama





















Hidden content
You need to react to this post in order to see this content.
 
Poslednja izmena:
M

miconi1

Učlanjen(a)
01.07.2014
Poruka
5
Leptirica (1973) 720p.mkv
Blu-ray Rip
112353


Video: MPEG4(H264) 928x720, 23.976fps
Audio: Dolby AC3 48000Hz mono, 448 kb/s

2.21 GB
Hidden content
You need to react to this post in order to see this content.
 
Poslednja izmena:
Wolf 13

Wolf 13

MODERATOR
Učlanjen(a)
10.10.2009
Poruka
13.278
Leptirica (1973) 720p BRrip DD5.1 x264 by Wolf
(MKV)



Kod:
  https://www.imdb.com/title/tt0200800/
General
Unique ID : 113873905195456965207072957476050192664 (0x55AB50FEEFC77E3D023F6A8666AA4918)
Complete name : Leptirica (1973) 720p BRrip DD5.1 x264 by Wolf.mkv
Format : Matroska
Format version : Version 4
File size : 862 MiB
Duration : 1 h 4 min
Overall bit rate : 1 859 kb/s
Encoded date : UTC 2019-04-06 15:56:00
Writing application : mkvmerge v32.0.0 ('Astral Progressions') 64-bit
Writing library : libebml v1.3.7 + libmatroska v1.5.0 / Lavf58.20.100

Video
ID : 1
Format : AVC
Format/Info : Advanced Video Codec
Format profile : [email protected]
Format settings : CABAC / 16 Ref Frames
Format settings, CABAC : Yes
Format settings, ReFrames : 16 frames
Codec ID : V_MPEG4/ISO/AVC
Duration : 1 h 4 min
Bit rate : 1 600 kb/s
Width : 928 pixels
Height : 720 pixels
Display aspect ratio : 16:9
Original display aspect rat : 1.289
Frame rate mode : Constant
Frame rate : 23.976 (24000/1001) FPS
Color space : YUV
Chroma subsampling : 4:2:0
Bit depth : 8 bits
Scan type : Progressive
Bits/(Pixel*Frame) : 0.100
Stream size : 742 MiB (86%)
Title : Leptirica (1973)
Writing library : x264 core 157 r2935 545de2f
Encoding settings : cabac=1 / ref=16 / deblock=1:-1:-1 / analyse=0x3:0x133 / me=umh / subme=10 / psy=1 / psy_rd=1.00:0.15 / mixed_ref=1 / me_range=24 / chroma_me=1 / trellis=2 / 8x8dct=1 / cqm=0 / deadzone=21,11 / fast_pskip=1 / chroma_qp_offset=-3 / threads=6 / lookahead_threads=1 / sliced_threads=0 / nr=0 / decimate=1 / interlaced=0 / bluray_compat=0 / constrained_intra=0 / bframes=8 / b_pyramid=2 / b_adapt=2 / b_bias=0 / direct=3 / weightb=1 / open_gop=0 / weightp=2 / keyint=240 / keyint_min=24 / scenecut=40 / intra_refresh=0 / rc_lookahead=60 / rc=2pass / mbtree=1 / bitrate=1600 / ratetol=1.0 / qcomp=0.60 / qpmin=0 / qpmax=69 / qpstep=4 / cplxblur=20.0 / qblur=0.5 / vbv_maxrate=300000 / vbv_bufsize=300000 / nal_hrd=none / filler=0 / ip_ratio=1.40 / aq=1:1.00
Language : Serbian
Default : Yes
Forced : No
Color range : Limited
Color primaries : BT.709
Transfer characteristics : BT.709
Matrix coefficients : BT.709

Audio
ID : 2
Format : E-AC-3
Format/Info : Enhanced AC-3
Commercial name : Dolby Digital Plus
Codec ID : A_EAC3
Duration : 1 h 4 min
Bit rate mode : Constant
Bit rate : 256 kb/s
Channel(s) : 6 channels
Channel layout : L R C LFE Ls Rs
Sampling rate : 48.0 kHz
Frame rate : 31.250 FPS (1536 SPF)
Compression mode : Lossy
Delay relative to video : -5 ms
Stream size : 119 MiB (14%)
Title : Leptirica (1973)
Language : Serbian
Service kind : Complete Main
Default : Yes
Forced : No

Text
ID : 3
Format : VobSub
Muxing mode : zlib
Codec ID : S_VOBSUB
Codec ID/Info : Picture based subtitle format used on DVDs
Duration : 1 h 4 min
Bit rate : 1 689 b/s
Count of elements : 479
Stream size : 799 KiB (0%)
Title : The She-Butterfly
Language : English
Default : No
Forced : No

Hidden content
You need to react to this post in order to see this content.

 
Top