Šta je novo?

Lepota poroka aka The Beauty of Vice (1986)

  • Začetnik teme Shane
  • Datum pokretanja
Wolf 13

Wolf 13

MODERATOR
Učlanjen(a)
10.10.2009
Poruka
13.278
Lepota poroka (1986) 1080p RTS Remastered DD5.1 x264 by Wolf
(MKV)



Kod:
  https://www.imdb.com/title/tt0091398/
General
Unique ID : 294821114764732483610951117793092123373 (0xDDCC7B378B91E32D5CBD83FF14F73AED)
Complete name : Lepota poroka (1986) 1080p RTS Remastered DD5.1 x264 by Wolf.mkv
Format : Matroska
Format version : Version 4
File size : 1.36 GiB
Duration : 1 h 50 min
Overall bit rate : 1 757 kb/s
Encoded date : UTC 2019-01-23 10:15:57
Writing application : mkvmerge v30.1.0 ('Forever And More') 64-bit
Writing library : libebml v1.3.6 + libmatroska v1.4.9 / Lavf58.20.100

Video
ID : 1
Format : AVC
Format/Info : Advanced Video Codec
Format profile : [email protected]
Format settings : CABAC / 8 Ref Frames
Format settings, CABAC : Yes
Format settings, ReFrames : 8 frames
Codec ID : V_MPEG4/ISO/AVC
Duration : 1 h 50 min
Bit rate : 1 500 kb/s
Width : 1 912 pixels
Height : 1 080 pixels
Display aspect ratio : 16:9
Frame rate mode : Constant
Frame rate : 25.000 FPS
Color space : YUV
Chroma subsampling : 4:2:0
Bit depth : 8 bits
Scan type : Progressive
Bits/(Pixel*Frame) : 0.029
Stream size : 1.16 GiB (85%)
Title : Lepota poroka (1986)
Writing library : x264 core 157 r2935 545de2f
Encoding settings : cabac=1 / ref=8 / deblock=1:-1:-1 / analyse=0x3:0x133 / me=umh / subme=9 / psy=1 / psy_rd=1.00:0.15 / mixed_ref=1 / me_range=16 / chroma_me=1 / trellis=2 / 8x8dct=1 / cqm=0 / deadzone=21,11 / fast_pskip=1 / chroma_qp_offset=-3 / threads=6 / lookahead_threads=1 / sliced_threads=0 / nr=0 / decimate=1 / interlaced=0 / bluray_compat=0 / constrained_intra=0 / bframes=3 / b_pyramid=2 / b_adapt=2 / b_bias=0 / direct=3 / weightb=1 / open_gop=0 / weightp=2 / keyint=250 / keyint_min=25 / scenecut=40 / intra_refresh=0 / rc_lookahead=60 / rc=2pass / mbtree=1 / bitrate=1500 / ratetol=1.0 / qcomp=0.60 / qpmin=0 / qpmax=69 / qpstep=4 / cplxblur=20.0 / qblur=0.5 / vbv_maxrate=300000 / vbv_bufsize=300000 / nal_hrd=none / filler=0 / ip_ratio=1.40 / aq=1:1.00
Language : Serbian
Default : Yes
Forced : No
Color range : Limited
Color primaries : BT.709
Transfer characteristics : BT.709
Matrix coefficients : BT.709

Audio
ID : 2
Format : E-AC-3
Format/Info : Enhanced AC-3
Commercial name : Dolby Digital Plus
Codec ID : A_EAC3
Duration : 1 h 50 min
Bit rate mode : Constant
Bit rate : 256 kb/s
Channel(s) : 6 channels
Channel layout : L R C LFE Ls Rs
Sampling rate : 48.0 kHz
Frame rate : 31.250 FPS (1536 SPF)
Compression mode : Lossy
Delay relative to video : -495 ms
Stream size : 203 MiB (15%)
Title : Lepota poroka (1986)
Language : Serbian
Service kind : Complete Main
Default : Yes
Forced : No

Hidden content
You need to react to this post in order to see this content.



...hvala parabolicxtc
 
Nikola096

Nikola096

Učlanjen(a)
13.12.2012
Poruka
328
Lepota poroka (1986) - Restaurirana verzija 1080p



U zaostalim selima crnogorskog krša običaj je da muž nevernu ženu maljem ubije preko pogače. U takvoj sredini živi mladi bračni par, zavetovan na doživotnu vernost. Žive siromašno i rado prihvate poziv čoveka koji je otišao za lakom zaradom u primorje, da slede njegov primer. On se zaposli u solani, a ona kao spremačica u nudističkom kampu. Tradicionalno vaspitana, užasava se nad golotinjom, naročito kad posprema apartman dvoje mladih stranaca koje zabavlja njena zbunjenost. Uz njihov podsticaj, ona postepeno oslobađa tradicijom sputanu senzualnost.

Uloge:
Mira Furlan Jaglika
Milutin Karadžić Luka
Petar Božović Đorđe „Žorž“
Alan Nuri Strani nudista
Ines Kotman Strana nudistkinja
Mira Banjac Milada
Eva Ras Žoržova žena
Dobrila Ćirković Kosara
Milo Miranović Vučko
Boro Stjepanović Zvonce
Boro Begović Gorčin
Vesna Pećanac Žena koja vara muža
Miodrag Krstović Prevareni muž
Svetolik Nikačević Jaglikin otac
Veljko Mandić Miladin muž
Boba Stefanović Gitarista
Jasna Beri Maca
Drago Malović Kelner
Mladen Nelević Nosač
Žarko Laušević Mladić sa cigaretom
Čedomir Dragović
Cica Pavlović
Gojko Kovačević
Roman Majhrovski
Vladimir Kotli
Vanja Sekulović
Branko Babović
Bata Kameni
Ines Popović
Čedo Vukanović

Režija: Živko Nikolić

Žanr: Drama​



Hidden content
You need to react to this post in order to see this content.
 
Top