Šta je novo?

Lepa sela lepo gore aka Pretty Village, Pretty Flame (1996)

  • Začetnik teme maja_jevtic
  • Datum pokretanja
M

maja_jevtic

UREDNIK
Učlanjen(a)
27.06.2011
Poruka
9.927
Lepa sela lepo gore (1996)













Radnja Filma: U jednoj beogradskoj vojnoj bolnici gde su smešteni ranjenici rata ovi junaci se sećaju mladosti i rata. Priča se vrti oko dvojice dečaka, Halila - muslimana, i Milana - Srbina, koji su odrasli zajedno u selu blizu napuštenog tunela. Kao deca se nisu usudili da uđu u tunel, jer su verovali da tamo boravi „drekavac“. Dvanaest godina kasnije, tokom rata u Bosni, Milan, zarobljen u tunelu sa svojim saborcima, i Halil nalaze se na suprotnim stranama, sudbinski srljajući u sukob...

Glavne uloge: Dragan Bjelogrlic, Nikola Kojo, Dragan Maksimovic


















Hidden content
You need to react to this post in order to see this content.

 
Wolf 13

Wolf 13

MODERATOR
Učlanjen(a)
10.10.2009
Poruka
13.278
Lepa sela lepo gore (1996) 1080p HD DVDrip DD5.1 x264 by Wolf
(MKV) HQ



Kod:
 https://www.imdb.com/title/tt0116860/
General
Unique ID : 54052271761975440770802938363953705909 (0x28AA16C080A190CB261A691BCCC673B5)
Complete name : Lepa sela lepo gore (1996) 1080p HD DVDrip DD5.1 x264 by Wolf.mkv
Format : Matroska
Format version : Version 4
File size : 1.68 GiB
Duration : 2 h 9 min
Overall bit rate : 1 858 kb/s
Encoded date : UTC 2020-08-25 05:03:26
Writing application : mkvmerge v49.0.0 ('Sick Of Losing Soulmates') 64-bit
Writing library : libebml v1.4.0 + libmatroska v1.6.1

Video
ID : 1
Format : AVC
Format/Info : Advanced Video Codec
Format profile : [email protected]
Format settings : CABAC / 16 Ref Frames
Format settings, CABAC : Yes
Format settings, Reference : 16 frames
Codec ID : V_MPEG4/ISO/AVC
Duration : 2 h 9 min
Bit rate : 1 600 kb/s
Width : 1 308 pixels
Height : 772 pixels
Display aspect ratio : 16:9
Original display aspect rat : 1.284
Frame rate mode : Constant
Frame rate : 25.000 FPS
Color space : YUV
Chroma subsampling : 4:2:0
Bit depth : 8 bits
Scan type : Progressive
Bits/(Pixel*Frame) : 0.063
Stream size : 1.45 GiB (86%)
Title : Lepa sela lepo gore (1996)
Writing library : x264 core 157 r2935 545de2f
Encoding settings : cabac=1 / ref=16 / deblock=1:-1:-1 / analyse=0x3:0x133 / me=tesa / subme=11 / psy=1 / psy_rd=1.00:0.15 / mixed_ref=1 / me_range=24 / chroma_me=1 / trellis=2 / 8x8dct=1 / cqm=0 / deadzone=21,11 / fast_pskip=0 / chroma_qp_offset=-3 / threads=6 / lookahead_threads=1 / sliced_threads=0 / nr=0 / decimate=1 / interlaced=0 / bluray_compat=0 / constrained_intra=0 / bframes=16 / b_pyramid=2 / b_adapt=2 / b_bias=0 / direct=3 / weightb=1 / open_gop=0 / weightp=2 / keyint=250 / keyint_min=25 / scenecut=40 / intra_refresh=0 / rc_lookahead=60 / rc=2pass / mbtree=1 / bitrate=1600 / ratetol=1.0 / qcomp=0.60 / qpmin=0 / qpmax=69 / qpstep=4 / cplxblur=20.0 / qblur=0.5 / vbv_maxrate=300000 / vbv_bufsize=300000 / nal_hrd=none / filler=0 / ip_ratio=1.40 / aq=1:1.00
Language : Serbian
Default : Yes
Forced : No
Color range : Limited
Color primaries : BT.709
Transfer characteristics : BT.709
Matrix coefficients : BT.709

Audio
ID : 2
Format : E-AC-3
Format/Info : Enhanced AC-3
Commercial name : Dolby Digital Plus
Codec ID : A_EAC3
Duration : 2 h 9 min
Bit rate mode : Constant
Bit rate : 256 kb/s
Channel(s) : 6 channels
Channel layout : L R C LFE Ls Rs
Sampling rate : 48.0 kHz
Frame rate : 31.250 FPS (1536 SPF)
Compression mode : Lossy
Delay relative to video : -5 ms
Stream size : 237 MiB (14%)
Title : Lepa sela lepo gore (1996)
Language : Serbian
Service kind : Complete Main
Default : Yes
Forced : No

Hidden content
You need to react to this post in order to see this content.

Hidden content
You need to react to this post in order to see this content.

 
Top