Šta je novo?
SerbianForum

This is a sample guest message. Register a free account today to become a member! Once signed in, you'll be able to participate on this site by adding your own topics and posts, as well as connect with other members through your own private inbox!

  • Hvala svima na 1 900 000+ postova & 500 000+ tema!

Ledeno Doba Collection

xandor

xandor

Uploader
#1
Ice Age: Collision Course / Ledeno Doba: Veliki Udar (2016) SRSinh 720p BRRip
- sinhronizovano srpski -


Ledeno_doba_628.jpg


Kod:
http://www.imdb.com/title/tt3416828/
Skretova epska potraga za odbeglim žirom ovoga puta će ga katapultirati u svemir, gde će se dogoditi niz kosmičkih događaja koji prete uništenju celog sveta. Kako bi se spasili od katastrofe koja im preti, Meni, Sid i Dijego, moraće da napuste svoj dom i krenu u nove avanture i to u egzotične zemlje u kojima upoznaju mnoštvo novih likova. Film će biti i sinhronizovan na srpski, a glasove glavnim junacima će pozajmiti već poznata ekipa glumaca iz prethodnih delova. Glas glavnom junaku, mamutu Meniju, pozajmio je glumac Nikola Đuričko, lenjivca igra Srđan Miletić. Voji Brajoviću studio 20th Century Fox poverio je ulogu tigra Dijega, dok Isidora Minić sihronizuje mamuta Eli.

sf35HdH.jpg


MEGA_resized.png


Kod:
https://mega.nz/#!nsYyAD5J!vylX6oEtpFHt173idX-LBWiV0tmZuSNQYUrRwA4vXvg
 
Poslednja izmena od urednika:
S

simark

#3
Ледено доба 5 - Велики удар
на српском језику-две верзије
Ice age 5 - Collision course (ser)
5083810-l.jpg?v=1478164229


Задњи део чувеног серијала на српском (одличан звук).
Филм доноси нове авантуре старе (и нове) екипе. Уживајте...
mediainfo-200x175.png
Мања резолуција, стерео звук:
Complete name :Ледено доба 5новст-Ice.Age.Collision.Course.2016.HDRip.XViD.MP3-simark.avi

File size : 737 MiB
Duration : 1 h 34 min

Video
Codec ID/Hint : XviD
Bit rate : 898 kb/s
Width : 640 pixels
Height : 352 pixels
Display aspect ratio : 16:9
Frame rate mode : Constant
Frame rate : 23.976 (24000/1001) FPS
Stream size : 606 MiB (82%)
Writing library : XviD 64

Audio
Codec ID/Hint : MP3
Bit rate mode : Constant
Bit rate : 192 kb/s
Channel(s) : 2 channels
Sampling rate : 48.0 kHz
Stream size : 130 MiB (18%)
Writing library : LAME3.99.5
Language : Serbian

DownloadButton.png

You need to like this in order to view this content.



IA__H_1280x479_US.rev_.2.png

mediainfo-200x175.png
Висока резолуција, шестоканални звук:
Complete name :Ледено доба 5нов-Ice.Age-Collision.Course.2016.1080p.BRRip.x264.AC3-simark.mkv

File size : 1.53 GiB
Duration : 1h 34mn

Video
Codec ID : V_MPEG4/ISO/AVC
Bit rate : 1 999 Kbps
Width : 1 920 pixels
Height : 800 pixels
Display aspect ratio : 2.40:1
Frame rate mode : Constant
Frame rate : 23.976 (24000/1001) fps
Stream size : 1.32 GiB (86%)
Writing library : x264 core 148 r2638 7599210

Audio
Codec ID : A_AC3
Bit rate mode : Constant
Bit rate : 320 Kbps
Channel(s) : 6 channels
Sampling rate : 48.0 KHz
Stream size : 216 MiB (14%)
Language : Serbian
DownloadButton.png

You need to like this in order to view this content.

Нема шифри...
 

Top