Šta je novo?
MODERATOR
Učlanjen(a)
02.05.2009
Poruka
29.537
Led (2012)





screen.png






uKAHlCO.png




info.png





Ovo je priča u čijem središtu su životi arhetipskih junaka, koja na metaforičan način odslikava neumitno zatiranja korena jedne srpske porodice, odumiranje i nestanak zaselaka i sela u prelepoj Šumadiji, u najlepšem delu centralne Srbije, sedamdesetih godina prošlog veka... Led je apoteoza odanosti i ljubavi.U osnovi dramskog zapleta priče, koja je smeštena u epohu lažnog blagostanja Jugoslavije u poslednjoj deceniji Titovog života , 1976. godine, u šumadijskom selu Radomilje živi dvadesetogodišnji seljak Milivoje (Momčilo Otašević), sa majkom Stanom (Nela Mihailović), deda Životijem (Bata Živojinović) i babom Savetom(Olga Odanović).Kob i slutnja tragične pogibije njegovog oca (Nedeljko Bajić) u majdanu, deset godina pre, kad je Milivoje bio dečak - razdire ga i proganja. Prikrivena ljubav njegove majke sa gastarbajterom Miroslavom (Nenad Jezdić), čija je kuća u dolini preko brda, pojačava dramatiku i neizvesnost njegovog prevrtanja po prošlosti

Reditelj: Jelena Bajic Jocic

Glavne Uloge: Velimir 'Bata' Zivojinovic, Olga Odanovic, Danijela 'Nela' Mihajlovic










screen.png





Led-2012-avi.jpg





Download.png




Hidden content
You need to react to this post in order to see this content.
 
MODERATOR
Učlanjen(a)
10.10.2009
Poruka
13.297
Led (2012) 1080p WEBrip DD5.1 x264 by Wolf
(MKV) HQ

nwiiDUq.jpg


Kod:
 https://www.imdb.com/title/tt1961386/

General
Unique ID : 197197209136803358094306110976117135786 (0x945ACD0E81E881EDA0AF3EF7E6C759AA)
Complete name : Led (2012) 1080p WEBrip DD5.1 x264 by Wolf.mkv
Format : Matroska
Format version : Version 4
File size : 1.49 GiB
Duration : 1 h 55 min
Overall bit rate : 1 857 kb/s
Encoded date : UTC 2020-06-08 19:08:40
Writing application : mkvmerge v47.0.0 ('Black Flag') 64-bit
Writing library : libebml v1.3.10 + libmatroska v1.5.2

Video
ID : 1
Format : AVC
Format/Info : Advanced Video Codec
Format profile : [email protected]
Format settings : CABAC / 16 Ref Frames
Format settings, CABAC : Yes
Format settings, Reference : 16 frames
Codec ID : V_MPEG4/ISO/AVC
Duration : 1 h 55 min
Bit rate : 1 600 kb/s
Width : 1 918 pixels
Height : 788 pixels
Display aspect ratio : 2.40:1
Frame rate mode : Constant
Frame rate : 25.000 FPS
Color space : YUV
Chroma subsampling : 4:2:0
Bit depth : 8 bits
Scan type : Progressive
Bits/(Pixel*Frame) : 0.042
Stream size : 1.29 GiB (86%)
Title : Led (2012)
Writing library : x264 core 157 r2935 545de2f
Encoding settings : cabac=1 / ref=16 / deblock=1:-1:-1 / analyse=0x3:0x133 / me=umh / subme=10 / psy=1 / psy_rd=1.00:0.15 / mixed_ref=1 / me_range=24 / chroma_me=1 / trellis=2 / 8x8dct=1 / cqm=0 / deadzone=21,11 / fast_pskip=1 / chroma_qp_offset=-3 / threads=6 / lookahead_threads=1 / sliced_threads=0 / nr=0 / decimate=1 / interlaced=0 / bluray_compat=0 / constrained_intra=0 / bframes=8 / b_pyramid=2 / b_adapt=2 / b_bias=0 / direct=3 / weightb=1 / open_gop=0 / weightp=2 / keyint=250 / keyint_min=25 / scenecut=40 / intra_refresh=0 / rc_lookahead=60 / rc=2pass / mbtree=1 / bitrate=1600 / ratetol=1.0 / qcomp=0.60 / qpmin=0 / qpmax=69 / qpstep=4 / cplxblur=20.0 / qblur=0.5 / vbv_maxrate=300000 / vbv_bufsize=300000 / nal_hrd=none / filler=0 / ip_ratio=1.40 / aq=1:1.00
Language : Serbian
Default : Yes
Forced : No
Color range : Limited
Color primaries : BT.709
Transfer characteristics : BT.709
Matrix coefficients : BT.709

Audio
ID : 2
Format : E-AC-3
Format/Info : Enhanced AC-3
Commercial name : Dolby Digital Plus
Codec ID : A_EAC3
Duration : 1 h 55 min
Bit rate mode : Constant
Bit rate : 256 kb/s
Channel(s) : 6 channels
Channel layout : L R C LFE Ls Rs
Sampling rate : 48.0 kHz
Frame rate : 31.250 FPS (1536 SPF)
Compression mode : Lossy
Delay relative to video : -6 ms
Stream size : 211 MiB (14%)
Title : Led (2012)
Language : Serbian
Service kind : Complete Main
Default : Yes
Forced : No

epYscVA.png

Hidden content
You need to react to this post in order to see this content.
zbNKcak.jpg

Hidden content
You need to react to this post in order to see this content.
VfIwCrV.png

DfVz7JR.jpg
 
Top