Šta je novo?

Lajanje na zvezde aka Barking at the Stars (1998)

  • Začetnik teme MaliGrizeBeton
  • Datum pokretanja
MaliGrizeBeton

MaliGrizeBeton

Eggdrop
Učlanjen(a)
23.05.2011
Poruka
2.268
Lajanje na zvezde (1998)





Radnja filma 'Lajanje na zvezde' odvija se u malom gradu u provinciji 1963.godine. Junaci ove duhovite price su nastavnici jedne provincijske gimnazije i odeljenje IV-2. Njihove dogodovstine su prepoznatljive i bliske svakom ko ima predstavu o srednjoskolskom zivotu, a opet su veoma licne. Glavni junak Mihailo Knezevic se duhom, inteligencijom i znanjem uzdize iznad ostalih djaka, a cesto i profesora. Njemu skolsko znanje nije problem, njegov problem je devojka iz razreda koju uporno osvaja. Glavni suparnik mu je brat, momak koji vec zna da 'pravi pare', pa mu skola i nije potrebna. Tu je i ucenik koji se razmece snagom i koga profesor fiskulture fanaticno trenira za bokserskog sampiona sve dok se sa meca u prestonici ne vrati modar i podvijenog repa. Jedan od ucenika je obavezno 'zlatno dete' za profesore, a ulizica za drugove. Najvise je onih koji oskudno znanje pokusavaju da nadoknade nizom trikova i dosetki. Narocito slikovito su dati likovi profesora koji su, svako na svoj nacin, malo 'uvrnuti'. Nervozni direktor skole ne zna ko mu teze pada, nemoguci djaci ili 'uvrnuti profesori'. 'Djaci ce sutra otici, ali profesori mi ostaju', jada se siroti direktor ...

Kod:
http://www.imdb.com/title/tt0187231/

Kod:
http://uptobox.com/dk6pw2bvidic



Upload domacih filmova posvecen jednom od najvecih uplaodera domacih filmova Lape Vecna ti slava druze.
 
Wolf 13

Wolf 13

MODERATOR
Učlanjen(a)
10.10.2009
Poruka
13.254
Lajanje na zvezde (1998) DVDrip AC3 5.1 x264 by Wolf
(MKV) HQ



Kod:
  https://www.imdb.com/title/tt0187231/
General
Unique ID : 223924286952595448253044866198395614446 (0xA8763FBB4D63D87B890D30EB529EF4EE)
Complete name : Lajanje na zvezde (1998) DVDrip AC3 5.1 x264 by Wolf.mkv
Format : Matroska
Format version : Version 4 / Version 2
File size : 1.17 GiB
Duration : 1 h 35 min
Overall bit rate : 1 753 kb/s
Encoded date : UTC 2018-12-07 16:38:44 / UTC 2018-12-05T15:17:04Z
Writing application : mkvmerge v29.0.0 ('Like It Or Not') 64-bit
Writing library : libebml v1.3.6 + libmatroska v1.4.9 / Lavf57.7.2

Video
ID : 1
Format : AVC
Format/Info : Advanced Video Codec
Format profile : [email protected]
Format settings : CABAC / 8 Ref Frames
Format settings, CABAC : Yes
Format settings, ReFrames : 8 frames
Codec ID : V_MPEG4/ISO/AVC
Duration : 1 h 35 min
Bit rate : 1 500 kb/s
Width : 702 pixels
Height : 466 pixels
Display aspect ratio : 16:9
Original display aspect rat : 16:10
Frame rate mode : Constant
Frame rate : 25.000 FPS
Color space : YUV
Chroma subsampling : 4:2:0
Bit depth : 8 bits
Scan type : Progressive
Bits/(Pixel*Frame) : 0.183
Stream size : 997 MiB (83%)
Title : Lajanje na zvezde (1998)
Writing library : x264 core 155 r2901 7d0ff22
Encoding settings : cabac=1 / ref=8 / deblock=1:-1:-1 / analyse=0x3:0x133 / me=umh / subme=9 / psy=1 / psy_rd=1.00:0.15 / mixed_ref=1 / me_range=16 / chroma_me=1 / trellis=2 / 8x8dct=1 / cqm=0 / deadzone=21,11 / fast_pskip=1 / chroma_qp_offset=-3 / threads=6 / lookahead_threads=1 / sliced_threads=0 / nr=0 / decimate=1 / interlaced=0 / bluray_compat=0 / constrained_intra=0 / bframes=3 / b_pyramid=2 / b_adapt=2 / b_bias=0 / direct=3 / weightb=1 / open_gop=0 / weightp=2 / keyint=250 / keyint_min=25 / scenecut=40 / intra_refresh=0 / rc_lookahead=60 / rc=2pass / mbtree=1 / bitrate=1500 / ratetol=1.0 / qcomp=0.60 / qpmin=0 / qpmax=69 / qpstep=4 / cplxblur=20.0 / qblur=0.5 / vbv_maxrate=300000 / vbv_bufsize=300000 / nal_hrd=none / filler=0 / ip_ratio=1.40 / aq=1:1.00
Language : Serbian
Default : Yes
Forced : No
Color range : Limited
Color primaries : BT.601 PAL
Transfer characteristics : BT.709
Matrix coefficients : BT.601
Statistics Tags Issue : mkvmerge v29.0.0 ('Like It Or Not') 64-bit 2018-12-07 16:38:44 / mkvmerge v29.0.0 ('Like It Or Not') 64-bit 2018-12-07 16:38:44 / UTC 2018-12-05T15:17:04Z
FromStats_BitRate : 1500019
FromStats_Duration : 01:35:02.000000000
FromStats_FrameCount : 142550
FromStats_StreamSize : 1069138856

Audio
ID : 2
Format : E-AC-3
Format/Info : Enhanced Audio Coding 3
Codec ID : A_EAC3
Duration : 1 h 35 min
Bit rate mode : Constant
Bit rate : 256 kb/s
Channel(s) : 6 channels
Channel positions : Front: L C R, Side: L R, LFE
Sampling rate : 48.0 kHz
Frame rate : 187.500 FPS (256 SPF)
Compression mode : Lossy
Delay relative to video : -5 ms
Stream size : 175 MiB (15%)
Title : Lajanje na zvezde (1998)
Language : Serbian
Service kind : Complete Main
Default : Yes
Forced : No
Statistics Tags Issue : mkvmerge v29.0.0 ('Like It Or Not') 64-bit 2018-12-07 16:38:44 / mkvmerge v29.0.0 ('Like It Or Not') 64-bit 2018-12-07 16:38:44 / UTC 2018-12-05T15:17:04Z
FromStats_BitRate : 256000
FromStats_Duration : 01:35:21.504000000
FromStats_FrameCount : 178797
FromStats_StreamSize : 183088128

Hidden content
You need to react to this post in order to see this content.

 
Poslednja izmena:
Top