Šta je novo?

Kozara (1962)

  • Začetnik teme maja_jevtic
  • Datum pokretanja
M

maja_jevtic

UREDNIK
Učlanjen(a)
27.06.2011
Poruka
10.132
Kozara (1962)













Rezija: Veljko Bulajic
Scenario: Stevan Bulajic, Veljko Bulajic, Ratko Ðurovic
Zanr: Drama, Ratni
Godina: 1962


Uloge:
Bert Sotlar, Bata zivojinovic, Milena Dravic, Olivera Markovic, Dragomir Felba, Ljubisa Samardzic...


Opis: Juna 1942. Nemci i njihovi saradnici preduzimaju ofanzivu protiv partizana u sumama planine Kozare. Jake neprijateljske snage stezu obruc oko Kozare, a partizani se pokusavaju probiti. Otezavajuca okolnost im je to sto moraju brinuti o ranjenicima i izbeglicama, zbog cega se manje grupe odlucuju na skrivanje u zemunicama, nadajuci se da ce ih mimoici nemacko ciscenje terena...


Kozara je klasican ratni film koji je visoko ocenjen medju delima tog zanra. Imao je vrlo solidan medjunarodni odjek, nagradjen je Zlatnom medaljom na festivalu u Moskvi i nagradom kritike u Nju Delhiju.



















Hidden content
You need to react to this post in order to see this content.

 
Poslednja izmena od urednika:
Wolf 13

Wolf 13

MODERATOR
Učlanjen(a)
10.10.2009
Poruka
13.278
Kozara (1962) DVDrip DD5.1 x264 by Wolf
(MKV) HQ



Kod:
 https://www.imdb.com/title/tt0055059/
General
Unique ID : 140666003314529694645348516280866788575 (0x69D3496B561AE4E0D092F705453554DF)
Complete name : Kozara (1962) DVDrip DD5.1 x264 by Wolf.mkv
Format : Matroska
Format version : Version 4
File size : 1.58 GiB
Duration : 2 h 2 min
Overall bit rate : 1 856 kb/s
Encoded date : UTC 2019-04-10 20:27:16
Writing application : mkvmerge v32.0.0 ('Astral Progressions') 64-bit
Writing library : libebml v1.3.7 + libmatroska v1.5.0 / Lavf58.20.100

Video
ID : 1
Format : AVC
Format/Info : Advanced Video Codec
Format profile : [email protected]
Format settings : CABAC / 16 Ref Frames
Format settings, CABAC : Yes
Format settings, ReFrames : 16 frames
Codec ID : V_MPEG4/ISO/AVC
Duration : 2 h 2 min
Bit rate : 1 600 kb/s
Width : 680 pixels
Height : 446 pixels
Display aspect ratio : 16:9
Original display aspect rat : 16:10
Frame rate mode : Constant
Frame rate : 25.000 FPS
Color space : YUV
Chroma subsampling : 4:2:0
Bit depth : 8 bits
Scan type : Progressive
Bits/(Pixel*Frame) : 0.211
Stream size : 1.36 GiB (86%)
Title : Kozara (1962)
Writing library : x264 core 157 r2935 545de2f
Encoding settings : cabac=1 / ref=16 / deblock=1:-1:-1 / analyse=0x3:0x133 / me=umh / subme=10 / psy=1 / psy_rd=1.00:0.15 / mixed_ref=1 / me_range=24 / chroma_me=1 / trellis=2 / 8x8dct=1 / cqm=0 / deadzone=21,11 / fast_pskip=1 / chroma_qp_offset=-3 / threads=6 / lookahead_threads=1 / sliced_threads=0 / nr=0 / decimate=1 / interlaced=0 / bluray_compat=0 / constrained_intra=0 / bframes=8 / b_pyramid=2 / b_adapt=2 / b_bias=0 / direct=3 / weightb=1 / open_gop=0 / weightp=2 / keyint=250 / keyint_min=25 / scenecut=40 / intra_refresh=0 / rc_lookahead=60 / rc=2pass / mbtree=1 / bitrate=1600 / ratetol=1.0 / qcomp=0.60 / qpmin=0 / qpmax=69 / qpstep=4 / cplxblur=20.0 / qblur=0.5 / vbv_maxrate=300000 / vbv_bufsize=300000 / nal_hrd=none / filler=0 / ip_ratio=1.40 / aq=1:1.00
Language : Serbian
Default : Yes
Forced : No
Color range : Limited
Color primaries : BT.601 PAL
Transfer characteristics : BT.709
Matrix coefficients : BT.601

Audio
ID : 2
Format : E-AC-3
Format/Info : Enhanced AC-3
Commercial name : Dolby Digital Plus
Codec ID : A_EAC3
Duration : 2 h 2 min
Bit rate mode : Constant
Bit rate : 256 kb/s
Channel(s) : 6 channels
Channel layout : L R C LFE Ls Rs
Sampling rate : 48.0 kHz
Frame rate : 31.250 FPS (1536 SPF)
Compression mode : Lossy
Stream size : 224 MiB (14%)
Title : Kozara (1962)
Language : Serbian
Service kind : Complete Main
Default : Yes
Forced : No

Hidden content
You need to react to this post in order to see this content.

Hidden content
You need to react to this post in order to see this content.

 
Poslednja izmena:
Top