Šta je novo?

Konferencija životinja aka Animals United (2010)

  • Začetnik teme simark
  • Datum pokretanja
S

simark

Učlanjen(a)
05.09.2009
Poruka
189
Уједињене животиње (Животињско царство)
на српском и енгл. језику синхронизовано
Animals united aka Konferenz der tiere

Занимљиво остварење на српском језику овај пут. У вишој
резолуцији, одличан српски и енглески звук. Стављена оба
назива филма у сам наслов поста, у имену фајла само старији. Уживајте...



Complete name : Уједињене животиње - Animals.United.2010.720p.BluRay.x264.Dual-simark.mkv

File size : 829 MiB
Duration : 1 h 33 min

Video
Codec ID : V_MPEG4/ISO/AVC
Bit rate : 1 050 kb/s
Width : 1 280 pixels
Height : 544 pixels
Display aspect ratio : 2.35:1
Frame rate : 23.976 (24000/1001) FPS
Stream size : 699 MiB (84%)
Writing library : x264 core 155

Audio #1
Codec ID : A_AAC-2
Bit rate : 128 kb/s
Channel(s) : 2 channels
Sampling rate : 48.0 kHz
Stream size : 85.2 MiB (10%)
Language : Serbian

Audio #2
Codec ID : A_AAC-2
Bit rate : 64.0 kb/s
Channel(s) : 2 channels
Sampling rate : 48.0 kHz
Stream size : 42.6 MiB (5%)
Language : English


Hidden content
You need to react to this post in order to see this content.
Нема шифре...
 
Top