Šta je novo?
Član
Učlanjen(a)
09.05.2011
Poruka
7.549

Knock Knock 2015 720p HDRIP x264 AC3 TiTAN
File Size: 2.532 GiB


ruUu3Nz.jpg


INFO:
Kod:
General 

Format : Matroska 
Format version : Version 2 
File size : 2.53 GiB 
Duration : 1h 39mn 
Overall bit rate mode : Variable 
Overall bit rate : 3 633 Kbps 

Video

ID : 1 
Format : AVC 
Format/Info : Advanced Video Codec 
Format profile : [email protected] 
Format settings, CABAC : Yes 
Format settings, ReFrames : 3 frames 
Codec ID : V_MPEG4/ISO/AVC 
Duration : 1h 39mn 
Bit rate mode : Variable 
Bit rate : 3 177 Kbps 
Maximum bit rate : 40.0 Mbps 
Width : 1 280 pixels 
Height : 534 pixels 
Display aspect ratio : 2.40:1 
Frame rate mode : Constant 
Frame rate : 23.976 fps 
Color space : YUV 
Chroma subsampling : 4:2:0 
Bit depth : 8 bits 
Scan type : Progressive 
Bits/(Pixel*Frame) : 0.194 
Stream size : 2.21 GiB (87%) 
Default : Yes 
Forced : No 
Color primaries : BT.709 
Transfer characteristics : BT.709 
Matrix coefficients : BT.709 

Audio

ID : 2 
Format : AC-3 
Format/Info : Audio Coding 3 
Mode extension : CM (complete main) 
Format settings, Endianness : Big 
Codec ID : A_AC3 
Duration : 1h 39mn 
Bit rate mode : Constant 
Bit rate : 384 Kbps 
Channel(s) : 6 channels 
Channel positions : Front: L C R, Side: L R, LFE 
Sampling rate : 48.0 KHz 
Bit depth : 16 bits 
Compression mode : Lossy 
Stream size : 274 MiB (11%) 
Language : English 
Default : Yes 
Forced : No

iMDB:
Kod:
http://www.imdb.com/title/tt3605418/

2.png


1.png


3.png


Single Extraction | No Password | Interchangeable Links | Working 100%

Kod:
http://rapidgator.net/file/bb800c5734ff7885402631e625a9c1bc/Kn0ck720p.TiTAN.part1.rar.html
http://rapidgator.net/file/daea04daec001f46920d909fead3144c/Kn0ck720p.TiTAN.part2.rar.html
http://rapidgator.net/file/adc97c04563d318ba24ba3e909ef1ae1/Kn0ck720p.TiTAN.part3.rar.html
http://rapidgator.net/file/3b56e0143ba8a68122b36a7a83bf8420/Kn0ck720p.TiTAN.part4.rar.html

http://uploaded.net/file/zcc02s81/Kn0ck720p.TiTAN.part1.rar
http://uploaded.net/file/t67pcphv/Kn0ck720p.TiTAN.part2.rar
http://uploaded.net/file/nech8es3/Kn0ck720p.TiTAN.part3.rar
http://uploaded.net/file/oql362p4/Kn0ck720p.TiTAN.part4.rar

http://k2s.cc/file/3794708d4d70b/Kn0ck720p.TiTAN.part1.rar
http://k2s.cc/file/252ab875673f2/Kn0ck720p.TiTAN.part2.rar
http://k2s.cc/file/d9c72ff4dbeed/Kn0ck720p.TiTAN.part3.rar
http://k2s.cc/file/63bb0e1472412/Kn0ck720p.TiTAN.part4.rar

http://nitroflare.com/view/5764A5776B1481E/Kn0ck720p.TiTAN.part1.rar
http://nitroflare.com/view/359F24C399CD812/Kn0ck720p.TiTAN.part2.rar
http://nitroflare.com/view/901DA010A7E2BC9/Kn0ck720p.TiTAN.part3.rar
http://nitroflare.com/view/24AACDC56341601/Kn0ck720p.TiTAN.part4.rar
Kod:
http://rg.to/file/b07c052889f6827b57e4b92255a14556/Kn0ck720p.SingLE.rar.html
http://uploaded.net/file/2rpkwf9s/Kn0ck720p.SingLE.rar
http://k2s.cc/file/86336065788c4/Kn0ck720p.SingLE.rar
http://nitroflare.com/view/A16E1BE08E9E364/Kn0ck720p.SingLE.rar
 
Učlanjen(a)
26.01.2014
Poruka
3.882
Knock Knock (2015) + Prevod


KnockKnock2015.png


imdb6.jpg


Kod:
 http://www.imdb.com/title/tt3605418/

Kad odani suprug i otac tijekom vikenda ostane sam kod kuće, dvije izgubljene djevojke neočekivano pokucaju na njegova vrata tražeći pomoć. Njegova prvotna ljubaznost pretvori se u opasno zavođenje i smrtonosnu igru mačke i miša. U novom trileru koji je režirao Eli Roth glume Keanu Reeves kao obiteljski čovjek koji pada u iskušenje, te Lorenza Izzo i Anade Armas kao zavodnice koje donose užas u njegov život, a mračna maštanja oženjenog muškarca pretvaraju u njegovu najgoru noćnu moru.

KnockKnock2015.avi.gif


KnockKnock2015.avi.jpg


downloade0cdd.gif


Knock Knock (2015) HDRip avi

filesflesh2.jpg


Hidden content
You need to react to this post in order to see this content.
Usklađen prevod u RAR arhivi
 
Poslednja izmena:
Član
Učlanjen(a)
26.11.2009
Poruka
1.674
Knock Knock (2015) 720p BluRay x264-YIFY+Prevod

knock-knock-2015.jpg


Kod:
http://www.imdb.com/title/tt3605418/

knock-knock-2015-720p-bl.jpg


hugefiles.jpg

Hidden content
You need to react to this post in order to see this content.
24uphoster.jpg

Hidden content
You need to react to this post in order to see this content.
 
Top