Šta je novo?
Član
Učlanjen(a)
09.05.2011
Poruka
7.549
Knight of Cups (2015) 720p BRRip XviD AC3 RARBG
File Size: 3.67 GiB


knight.jpg


RELEAsEN0TEs
Kod:
General
Format                         : AVI
Format/Info                    : Audio Video Interleave
File size                      : 3.67 GiB
Duration                       : 1h 58mn
Overall bit rate               : 4 443 Kbps
Writing library                : VirtualDub build 35491/release

Video
ID                             : 0
Format                         : MPEG-4 Visual
Codec ID                       : XVID
Codec ID/Hint                  : XviD
Duration                       : 1h 58mn
Bit rate                       : 3 618 Kbps
Width                          : 1 280 pixels
Height                         : 544 pixels
Display aspect ratio           : 2.35:1
Frame rate                     : 23.976 fps
Color space                    : YUV
Chroma subsampling             : 4:2:0
Compression mode               : Lossy
Bits/(Pixel*Frame)             : 0.217
Stream size                    : 2.99 GiB (81%)

Audio
ID                             : 1
Format                         : AC-3
Format/Info                    : Audio Coding 3
Codec ID                       : 2000
Duration                       : 1h 58mn
Bit rate mode                  : Constant
Bit rate                       : 640 Kbps
Channel count                  : 6 channels
Sampling rate                  : 48.0 KHz
Compression mode               : Lossy
Stream size                    : 542 MiB (14%)
Alignment                      : Aligned on interleaves

IMDB Ratings : 6.1/10 >> 4.029 users >> Top 250: #N/A
Metascore: 58/100

Kod:
http://www.imdb.com/title/tt2101383/

sCREENsH0Ts

knight.png



D0WNL0AD
Kod:
http://rapidgator.net/file/d048962667b24ad1ee0d4ca7d8720efe/Kn1GhT.0f.cUps.720p.BRRip.RARBG.part1.rar.html
http://rapidgator.net/file/72bfa7d5f480857771cc45fe0e143a02/Kn1GhT.0f.cUps.720p.BRRip.RARBG.part2.rar.html
http://rapidgator.net/file/1712113b341e18b9a5d1c2f5122f0243/Kn1GhT.0f.cUps.720p.BRRip.RARBG.part3.rar.html
http://rapidgator.net/file/9df9931d3fffc8fec8f80fd8ead1e939/Kn1GhT.0f.cUps.720p.BRRip.RARBG.part4.rar.html

http://uploaded.net/file/tkwrwnlw/Kn1GhT.0f.cUps.720p.BRRip.RARBG.part1.rar
http://uploaded.net/file/49ioor7z/Kn1GhT.0f.cUps.720p.BRRip.RARBG.part2.rar
http://uploaded.net/file/0i6ph33g/Kn1GhT.0f.cUps.720p.BRRip.RARBG.part3.rar
http://uploaded.net/file/3qw9iycu/Kn1GhT.0f.cUps.720p.BRRip.RARBG.part4.rar

http://uptobox.com/od17unnvxxqp
http://uptobox.com/uc05l2fh56pb
http://uptobox.com/zhyca24e05fq
http://uptobox.com/kf1wkji6j5ns

http://k2s.cc/file/46168525be1ac/Kn1GhT.0f.cUps.720p.BRRip.RARBG.part1.rar
http://k2s.cc/file/5865ebbf9e12e/Kn1GhT.0f.cUps.720p.BRRip.RARBG.part2.rar
http://k2s.cc/file/f43ec56070c55/Kn1GhT.0f.cUps.720p.BRRip.RARBG.part3.rar
http://k2s.cc/file/097717cae10ac/Kn1GhT.0f.cUps.720p.BRRip.RARBG.part4.rar

http://nitroflare.com/view/1A24C7F56DF2E00/Kn1GhT.0f.cUps.720p.BRRip.RARBG.part1.rar
http://nitroflare.com/view/9DF023C2BA743E5/Kn1GhT.0f.cUps.720p.BRRip.RARBG.part2.rar
http://nitroflare.com/view/73CC52E5D46F1D1/Kn1GhT.0f.cUps.720p.BRRip.RARBG.part3.rar
http://nitroflare.com/view/03A15BF79206AFD/Kn1GhT.0f.cUps.720p.BRRip.RARBG.part4.rar
< SingLELiNK >
Kod:
http://uploaded.net/file/xif6hqwf/Knight.of.Cups.2015.720p.BRRip.XviD.AC3-RARBG.avi
http://nitroflare.com/view/0FD1AB590A1777D/Knight.of.Cups.2015.720p.BRRip.XviD.AC3-RARBG.avi
http://uptobox.com/5bby845ti94h
[/CENTER]
 
UPLOADER
Učlanjen(a)
25.09.2009
Poruka
1.259
Knight Of Cups (2015) BluRay 720p 800MB

fyo8Ju8.jpg


Kod:
http://www.imdb.com/title/tt2101383/

Genre: Drama, Romance
Stars: Christian Bale, Cate Blanchett, Natalie Portman
Quality: BluRay 720p
Encoder: HaGa
Source: 720p BluRay x264-VETO
Size: 838720127 bytes (799.87 MiB), duration: 01:58:23, avg.bitrate: 945 kb/s
Audio: aac, 48000 Hz, stereo (eng)
Video: h264, yuv420p, 1280x544, 23.98 fps(r)


KOC_3.jpg


KOC_29.jpg


KOC_21.jpg


Knight_of_Cups_2015_Blu_Ray_720p_00_53_50_00004.jpg


utbox.png


Kod:
http://uptobox.com/kfmxxl5b2fai

Proveren prevod

Kod:
http://titlovi.com/titlovi/knight-of-cups-222719/
 
Poslednja izmena od urednika:
Top