Šta je novo?

Kingsman The Secret Service (2015)

  • Začetnik teme CyberWarez
  • Datum pokretanja
CyberWarez

CyberWarez

Član
Učlanjen(a)
09.05.2011
Poruka
7.549

Kingsman The Secret Service (2015) English Movies HDCam XViD AAC New Source
File Size: 700 MiB




Genre: Action | Adventure | Comedy
IMDB Rating: 8,3/10 from 37.462 users Metascore: 59/100
Starring: Colin Firth, Taron Egerton, Samuel L. Jackson
Release Name: Kingsman The Secret Service (2015) English Movies HDCam XViD AAC New Source
Size: 700 MiB
Video: Resolution: 700 x 260 | Aspect ratio: 2.6923 | Format: H264
Audio: English | Format: MP4A | Bitrate: 0 kbps | Codec: ffaac
Runtime: 01:48:50

Director: Matthew Vaughn
Writer: Jane Goldman (screenplay), Matthew Vaughn
Plot:
A spy organization recruits an unrefined, but promising street kid into the agency's ultra-competitive training program just as a global threat emerges from a twisted tech genius.
Kod:
http://www.imdb.com/title/tt2802144/


D O W N L O A D :
Kod:
http://rapidgator.net/file/d2a99e7a855b55cc3d69b2d870e53743/KtSS15.HDcAm.rar.html
http://uploaded.net/file/641ouzd0/KtSS15.HDcAm.rar
http://www.filefactory.com/file/s7yj6e1ah9l/KtSS15.HDcAm.rar
http://k2s.cc/file/5e921a3972588/KtSS15.HDcAm.rar
http://www.nitroflare.com/view/20C01722CBE4CDF
 
L

letterpad

Član
Učlanjen(a)
02.03.2013
Poruka
3.108
Kingsman The Secret Service 2014 HDCAM XVID AC3 HQ Hive-CM8




File: 2154232522KSMNS2521425447596.avi
Size: 1743237120 bytes (1.62 GiB), duration: 01:52:25, avg.bitrate: 2068 kb/s
Audio: ac3, 48000 Hz, stereo, 256 kb/s
Video: mpeg4, yuv420p, 720x304, 29.97 fps(r)



If U Like My Post Willing To Buy Premium For High Speed Resumable downloads Pls BuY Premium From This Links

Kod:
http://keep2s.cc/file/0d1bee15a262e/2154232522KSMNS2521425447596.avi


http://rapidgator.net/file/93c89569ed5ea4d28194ce9cfc9a093c/2154232522KSMNS2521425447596.avi.html


http://www.nitroflare.com/view/9F2BDE086E51797/2154232522KSMNS2521425447596.avi

 
CyberWarez

CyberWarez

Član
Učlanjen(a)
09.05.2011
Poruka
7.549

Kingsman The Secret Service (2014) CAM ENG x264 CPG
File Size: 1.261 GiB




INFO:
Kod:
General
Complete name                  : KTSS14CAM.CPG.mp4
Format                         : MPEG-4
Format profile                 : Base Media
Codec ID                       : isom
File size                      : 1.22 GiB
Duration                       : 2h 0mn
Overall bit rate mode          : Variable
Overall bit rate               : 1 438 Kbps

Video
ID                             : 1
Format                         : AVC
Format/Info                    : Advanced Video Codec
Format profile                 : [email protected]
Format settings, CABAC         : Yes
Format settings, ReFrames      : 3 frames
Codec ID                       : avc1
Codec ID/Info                  : Advanced Video Coding
Duration                       : 2h 0mn
Bit rate mode                  : Variable
Bit rate                       : 1 307 Kbps
Maximum bit rate               : 40.0 Mbps
Width                          : 720 pixels
Height                         : 304 pixels
Display aspect ratio           : 2.35:1
Frame rate mode                : Constant
Frame rate                     : 29.970 fps
Color space                    : YUV
Chroma subsampling             : 4:2:0
Bit depth                      : 8 bits
Scan type                      : Progressive
Bits/(Pixel*Frame)             : 0.199
Stream size                    : 1.10 GiB (91%)

Audio
ID                             : 2
Format                         : AAC
Format/Info                    : Advanced Audio Codec
Format profile                 : LC
Codec ID                       : 40
Duration                       : 2h 0mn
Source duration                : 2h 0mn
Bit rate mode                  : Variable
Bit rate                       : 128 Kbps
Maximum bit rate               : 131 Kbps
Channel(s)                     : 2 channels
Channel positions              : Front: L R
Sampling rate                  : 48.0 KHz
Compression mode               : Lossy
Stream size                    : 111 MiB (9%)
Source stream size             : 111 MiB (9%)
iMDB:
Kod:
http://www.imdb.com/title/tt2802144/


Single Extraction | No Password | Interchangeable Links: | Working 100% |

Kod:
http://rapidgator.net/file/0bd25d6e705de2693fe5a2226444ec26/KTSS14CAM.CPG.rar.html
http://uploaded.net/file/ddgz7lrd/KTSS14CAM.CPG.rar
http://k2s.cc/file/ae670b50fd6c5/KTSS14CAM.CPG.rar
http://www.nitroflare.com/view/D6681EEB386D062
http://hugefiles.net/o1y2xe7c398c
 
Top