Šta je novo?

Kad budem mrtav i beo (1967)

  • Začetnik teme Nikola096
  • Datum pokretanja
Nikola096

Nikola096

Učlanjen(a)
13.12.2012
Poruka
341
Kad budem mrtav i beo (1967) 1080p - Restaurirana verzija By VIP Kinoteka WEB-DL



Janko Bugarski, zvani DŽimi Barka, mora da napusti zajedno sa svojom devojkom Lilicom privremeno zaposlenje kao sezonski radnik. Bez posla, kreće sa Lilicom u neizvesnost. Majka, siromašna pralja, ne može da mu pomogne, a u fabrikama i preduzećima nema mesta. Da bi došao do para, DŽimi potkrada radnike na jednom gradilištu i bežeći od gonilaca, izgubi Lilicu. Tada započinje odiseja DŽimija Barke. Sreće kafansku pevačicu, Dušku, postaje njen ljubavnik i uči da peva. Peva veoma rđavo, ali to mu ne smeta da putuje po varošicama, peva na vašarima i po zabačenim vojnim garnizonima. U jednoj varošici sreće mladu zubotehničarku Bojanu, i sa njom odlazi u Beograd na takmičenje mladih pevača. Umesto aplauza i afirmacije, dočekuju ga zvižduci i uvrede. DŽimi beži sam i na jednom brodu ponovo sreće Lilicu, koja živi od džeparenja i simuliranja trudnoće. Oboje odlaze kod upravnika bivšeg gradilišta Milutina, u pokušaju da ga ucene: mlada žena navodno nosi njegovo dete. Milutin otkriva da su ga prevarili. Pokušava da siluje Lilicu, ali ga DŽimi sprečava. Pokušava da ga ubije i ismeva ga pred radnicima. Poniženi i iznervirani direktor, uzima svoju pušku i ubija DŽimija.




Hidden content
You need to react to this post in order to see this content.
 
Wolf 13

Wolf 13

MODERATOR
Učlanjen(a)
10.10.2009
Poruka
13.255
Kad budem mrtav i beo (1967) 720p VIP Kinoteka Remastered E-AC3 x264 by Wolf
(MKV)



Kod:
  https://www.imdb.com/title/tt0061855/
General
Unique ID : 226806798208526637216825252080368058727 (0xAAA16682522800EF2E395EE20AFD8167)
Complete name : Kad budem mrtav i beo (1967) 720p VIP Kinoteka Remastered E-AC3 x264 by Wolf.mkv
Format : Matroska
Format version : Version 4 / Version 2
File size : 945 MiB
Duration : 1 h 15 min
Overall bit rate : 1 758 kb/s
Encoded date : UTC 2018-11-26 18:26:59 / UTC 2018-11-26T14:47:05Z
Writing application : mkvmerge v28.2.0 ('The Awakening') 64-bit
Writing library : libebml v1.3.6 + libmatroska v1.4.9 / Lavf57.7.2

Video
ID : 1
Format : AVC
Format/Info : Advanced Video Codec
Format profile : [email protected]
Format settings : CABAC / 8 Ref Frames
Format settings, CABAC : Yes
Format settings, ReFrames : 8 frames
Codec ID : V_MPEG4/ISO/AVC
Duration : 1 h 15 min
Bit rate : 1 500 kb/s
Width : 1 196 pixels
Height : 720 pixels
Display aspect ratio : 16:9
Original display aspect rat : 5:3
Frame rate mode : Constant
Frame rate : 25.000 FPS
Color space : YUV
Chroma subsampling : 4:2:0
Bit depth : 8 bits
Scan type : Progressive
Bits/(Pixel*Frame) : 0.070
Stream size : 789 MiB (83%)
Title : Kad budem mrtav i beo (1967)
Writing library : x264 core 155 r2901 7d0ff22
Encoding settings : cabac=1 / ref=8 / deblock=1:-1:-1 / analyse=0x3:0x133 / me=umh / subme=9 / psy=1 / psy_rd=1.00:0.15 / mixed_ref=1 / me_range=16 / chroma_me=1 / trellis=2 / 8x8dct=1 / cqm=0 / deadzone=21,11 / fast_pskip=1 / chroma_qp_offset=-3 / threads=6 / lookahead_threads=1 / sliced_threads=0 / nr=0 / decimate=1 / interlaced=0 / bluray_compat=0 / constrained_intra=0 / bframes=3 / b_pyramid=2 / b_adapt=2 / b_bias=0 / direct=3 / weightb=1 / open_gop=0 / weightp=2 / keyint=250 / keyint_min=25 / scenecut=40 / intra_refresh=0 / rc_lookahead=60 / rc=2pass / mbtree=1 / bitrate=1500 / ratetol=1.0 / qcomp=0.60 / qpmin=0 / qpmax=69 / qpstep=4 / cplxblur=20.0 / qblur=0.5 / vbv_maxrate=300000 / vbv_bufsize=300000 / nal_hrd=none / filler=0 / ip_ratio=1.40 / aq=1:1.00
Language : Serbian
Default : Yes
Forced : No
Color range : Limited
Color primaries : BT.709
Transfer characteristics : BT.709
Matrix coefficients : BT.709
Statistics Tags Issue : mkvmerge v28.2.0 ('The Awakening') 64-bit 2018-11-26 18:26:59 / mkvmerge v28.2.0 ('The Awakening') 64-bit 2018-11-26 18:26:59 / UTC 2018-11-26T14:47:05Z
FromStats_BitRate : 1500357
FromStats_Duration : 01:15:08.760000000
FromStats_FrameCount : 112718
FromStats_StreamSize : 845594109

Audio
ID : 2
Format : E-AC-3
Format/Info : Enhanced Audio Coding 3
Codec ID : A_EAC3
Duration : 1 h 15 min
Bit rate mode : Constant
Bit rate : 256 kb/s
Channel(s) : 6 channels
Channel positions : Front: L C R, Side: L R, LFE
Sampling rate : 48.0 kHz
Frame rate : 187.500 FPS (256 SPF)
Compression mode : Lossy
Delay relative to video : -5 ms
Stream size : 138 MiB (15%)
Title : Kad budem mrtav i beo (1967)
Language : Serbian
Service kind : Complete Main
Default : Yes
Forced : No
Statistics Tags Issue : mkvmerge v28.2.0 ('The Awakening') 64-bit 2018-11-26 18:26:59 / mkvmerge v28.2.0 ('The Awakening') 64-bit 2018-11-26 18:26:59 / UTC 2018-11-26T14:47:05Z
FromStats_BitRate : 256000
FromStats_Duration : 01:15:08.672000000
FromStats_FrameCount : 140896
FromStats_StreamSize : 144277504

Hidden content
You need to react to this post in order to see this content.



...Hvala Nikola
 
M

maja_jevtic

UREDNIK
Učlanjen(a)
27.06.2011
Poruka
9.949
Kad budem mrtav i beo (1967) HDTVRip













Janko Bugarski, zvani DŽimi Barka, mora da napusti zajedno sa svojom devojkom Lilicom privremeno zaposlenje kao sezonski radnik. Bez posla, kreće sa Lilicom u neizvesnost. Majka, siromašna pralja, ne može da mu pomogne, a u fabrikama i preduzećima nema mesta. Da bi došao do para, DŽimi potkrada radnike na jednom gradilištu i bežeći od gonilaca, izgubi Lilicu. Tada započinje odiseja DŽimija Barke. Sreće kafansku pevačicu, Dušku, postaje njen ljubavnik i uči da peva. Peva veoma rđavo, ali to mu ne smeta da putuje po varošicama, peva na vašarima i po zabačenim vojnim garnizonima. U jednoj varošici sreće mladu zubotehničarku Bojanu, i sa njom odlazi u Beograd na takmičenje mladih pevača. Umesto aplauza i afirmacije, dočekuju ga zvižduci i uvrede. DŽimi beži sam i na jednom brodu ponovo sreće Lilicu, koja živi od džeparenja i simuliranja trudnoće. Oboje odlaze kod upravnika bivšeg gradilišta Milutina, u pokušaju da ga ucene: mlada žena navodno nosi njegovo dete. Milutin otkriva da su ga prevarili. Pokušava da siluje Lilicu, ali ga DŽimi sprečava. Pokušava da ga ubije i ismeva ga pred radnicima. Poniženi i iznervirani direktor, uzima svoju pušku i ubija DŽimija.



























Hidden content
You need to react to this post in order to see this content.

 
Poslednja izmena od urednika:
Torrent Maniak

Torrent Maniak

MODERATOR
Učlanjen(a)
02.05.2009
Poruka
29.021
Kad budem mrtav i beo 1967 HDTV 720p x264




















Hidden content
You need to react to this post in order to see this content.

 
Poslednja izmena od urednika:
Top