Šta je novo?

Juzni vetar aka South Wind (2018)

MODERATOR
Učlanjen(a)
10.10.2009
Poruka
13.331
Juzni vetar (2018) 1080p BRrip DD5.1 x264 by Wolf
(MKV)

hBrnzyK.png


Kod:
 https://www.imdb.com/title/tt5207158/

General
Unique ID : 4002197120267583869207049891019127850 (0x302CB8D7D9CE744FE0EA43784CE7C2A)
Complete name : Juzni vetar (2018) 1080p BRrip DD5.1 x264 by Wolf.mkv
Format : Matroska
Format version : Version 4
File size : 1.62 GiB
Duration : 2 h 5 min
Overall bit rate : 1 856 kb/s
Encoded date : UTC 2019-12-13 17:03:46
Writing application : mkvmerge v41.0.0 ('Smarra') 64-bit
Writing library : libebml v1.3.9 + libmatroska v1.5.2

Video
ID : 1
Format : AVC
Format/Info : Advanced Video Codec
Format profile : High@L5.1
Format settings : CABAC / 8 Ref Frames
Format settings, CABAC : Yes
Format settings, Reference : 8 frames
Codec ID : V_MPEG4/ISO/AVC
Duration : 2 h 5 min
Bit rate : 1 600 kb/s
Width : 1 920 pixels
Height : 808 pixels
Display aspect ratio : 2.40:1
Frame rate mode : Constant
Frame rate : 25.000 FPS
Color space : YUV
Chroma subsampling : 4:2:0
Bit depth : 8 bits
Scan type : Progressive
Bits/(Pixel*Frame) : 0.041
Stream size : 1.40 GiB (86%)
Title : Juzni vetar (2018)
Writing library : x264 core 157 r2935 545de2f
Encoding settings : cabac=1 / ref=8 / deblock=1:-1:-1 / analyse=0x3:0x133 / me=umh / subme=9 / psy=1 / psy_rd=1.00:0.15 / mixed_ref=1 / me_range=16 / chroma_me=1 / trellis=2 / 8x8dct=1 / cqm=0 / deadzone=21,11 / fast_pskip=1 / chroma_qp_offset=-3 / threads=6 / lookahead_threads=1 / sliced_threads=0 / nr=0 / decimate=1 / interlaced=0 / bluray_compat=0 / constrained_intra=0 / bframes=3 / b_pyramid=2 / b_adapt=2 / b_bias=0 / direct=3 / weightb=1 / open_gop=0 / weightp=2 / keyint=250 / keyint_min=25 / scenecut=40 / intra_refresh=0 / rc_lookahead=60 / rc=2pass / mbtree=1 / bitrate=1600 / ratetol=1.0 / qcomp=0.60 / qpmin=0 / qpmax=69 / qpstep=4 / cplxblur=20.0 / qblur=0.5 / vbv_maxrate=300000 / vbv_bufsize=300000 / nal_hrd=none / filler=0 / ip_ratio=1.40 / aq=1:1.00
Language : Serbian
Default : Yes
Forced : No
Color range : Limited
Color primaries : BT.709
Transfer characteristics : BT.709
Matrix coefficients : BT.709

Audio
ID : 2
Format : E-AC-3
Format/Info : Enhanced AC-3
Commercial name : Dolby Digital Plus
Codec ID : A_EAC3
Duration : 2 h 5 min
Bit rate mode : Constant
Bit rate : 256 kb/s
Channel(s) : 6 channels
Channel layout : L R C LFE Ls Rs
Sampling rate : 48.0 kHz
Frame rate : 31.250 FPS (1536 SPF)
Compression mode : Lossy
Delay relative to video : -5 ms
Stream size : 229 MiB (14%)
Title : Juzni vetar (2018)
Language : Serbian
Service kind : Complete Main
Default : Yes
Forced : No

Text
ID : 3
Format : UTF-8
Codec ID : S_TEXT/UTF8
Codec ID/Info : UTF-8 Plain Text
Duration : 1 h 39 min
Bit rate : 1 b/s
Count of elements : 36
Stream size : 1.04 KiB (0%)
Title : JUŽNI VETAR
Language : Serbian
Default : Yes
Forced : No

epYscVA.png

Hidden content
You need to react to this post in order to see this content.
IJHM8NV.png

aSxwFpo.jpg
 
Učlanjen(a)
31.05.2022
Poruka
178
Južni vetar (2018)







Južni vetar (2018) 1080p WEBRip x265

jv18djv0.png

jv2i9k5q.png

jv3b2jqh.png



IME : Južni vetar (2018) 1080p WEBRip x265
FORMAT : Matroska –⮞ 2 395 Kbps
VELIČINA : 2,03 GiB –⮞ 2h 1min 4s 0ms

VIDEO : HEVC –⮞ 2 235 Kbps
REZOLUCIJA : 1920 x 1080 (1.778) –⮞ 25.000 fps

AUDIO : AAC –⮞ 159 Kbps
TON SISTEM : 6 Kanala –⮞ 48,0 KHz



Hidden content
You need to react to this post in order to see this content.
 
Top