Šta je novo?

John Cazale kolekcija + prevod

LEGEND
Učlanjen(a)
05.05.2009
Poruka
4.736
Kolekcija filmova John Cazale sa prevodom

John Cazale
59ym8p.jpg


Kolekcija filmova John Cazale, odnosno svih 5 filmova koje je snimio. Preminuo je vrlo brzo nakon zavrsetka snimanja The Deer Hunter (1978), od teske bolesti. Bio je veren glumicom Meryl Streep.

1. The Godfather (1972) .... Fredo Corleone
2. The Conversation (1974) .... Stan
3. The Godfather: Part II (1974) .... Fredo Corleone
4. Dog Day Afternoon (1975) .... Sal
5. The Deer Hunter (1978) .... Stan


The Godfather (1972) + prevod
IMDb: 9.1/10 368,158 votes Top 250: #2 Won 3 Oscars. Another 19 wins & 17 nominations


2s9uj9e.jpg


:info:

Kod:
[URL="http://www.imdb.com/title/tt0068646/"]The Godfather (1972)[/URL]


The story begins as "Don" Vito Corleone, the head of a New York Mafia "family", oversees his daughter's wedding. His beloved son Michael has just come home from the war, but does not intend to become part of his father's business. Through Michael's life the nature of the family business becomes clear. The business of the family is just like the head of the family, kind and benevolent to those who give respect, but given to ruthless violence whenever anything stands against the good of the family. Don Vito lives his life in the way of the old country, but times are changing and some don't want to follow the old ways and look out for community and "family". An up and coming rival of the Corleone family wants to start selling drugs in New York, and needs the Don's influence to further his plan. The clash of the Don's fading old world values and the new ways will demand a terrible price, especially from Michael, all for the sake of the family.

CD1
Format : AVI
Format/Info : Audio Video Interleave
File size : 692 MiB
Duration : 1h 33mn
Overall bit rate : 1 037 Kbps
Movie name : The Godfather Part 1 CD1
Director : HOSTiLE
Subject : The Godfather Part 1 CD1
Writing application : Nandub v1.0rc2
Writing library : Nandub build 1853/release

Video
ID : 0
Format : MPEG-4 Visual
Codec ID : DIV3
Codec ID/Hint : DivX 3 Low
Duration : 1h 33mn
Bit rate : 893 Kbps
Width : 640 pixels
Height : 352 pixels
Display aspect ratio : 16:9
Frame rate : 23.976 fps
Resolution : 24 bits
Bits/(Pixel*Frame) : 0.165
Stream size : 596 MiB (86%)

Audio
ID : 1
Format : MPEG Audio
Format version : Version 1
Format profile : Layer 3
Codec ID : 55
Codec ID/Hint : MP3
Duration : 1h 33mn
Bit rate mode : Variable
Bit rate : 131 Kbps
Channel(s) : 2 channels
Sampling rate : 48.0 KHz
Resolution : 16 bits
Stream size : 87.3 MiB (13%)
Alignment : Aligned on interleaves
Interleave, duration : 24 ms (0.58 video frame)
Interleave, preload duration : 358 ms
Writing library : LAME3.89 (beta)

CD2
Format : AVI
Format/Info : Audio Video Interleave
File size : 701 MiB
Duration : 1h 21mn
Overall bit rate : 1 195 Kbps
Movie name : The Godfather Part 1 CD2
Director : HOSTiLE
Subject : The Godfather Part 1 CD2
Writing application : Nandub v1.0rc2
Writing library : Nandub build 1853/release

Video
ID : 0
Format : MPEG-4 Visual
Codec ID : DIV3
Codec ID/Hint : DivX 3 Low
Duration : 1h 21mn
Bit rate : 1 052 Kbps
Width : 640 pixels
Height : 352 pixels
Display aspect ratio : 16:9
Frame rate : 23.976 fps
Resolution : 24 bits
Bits/(Pixel*Frame) : 0.195
Stream size : 617 MiB (88%)

Audio
ID : 1
Format : MPEG Audio
Format version : Version 1
Format profile : Layer 3
Codec ID : 55
Codec ID/Hint : MP3
Duration : 1h 21mn
Bit rate mode : Variable
Bit rate : 128 Kbps
Channel(s) : 2 channels
Sampling rate : 48.0 KHz
Resolution : 16 bits
Stream size : 76.3 MiB (11%)
Alignment : Aligned on interleaves
Interleave, duration : 24 ms (0.58 video frame)
Interleave, preload duration : 461 ms
:screen:

6hrvhc.jpg

2cgfwas.jpg


:download:

Kod:
     [url=http://rapidshare.com/files/293465352/Godfather.SF.org.part01.rar]RapidShare: 1-CLICK Web hosting - Easy Filehosting[/url]
     [url=http://rapidshare.com/files/293469329/Godfather.SF.org.part02.rar]RapidShare: 1-CLICK Web hosting - Easy Filehosting[/url]
     [url=http://rapidshare.com/files/293525571/Godfather.SF.org.part03.rar]RapidShare: 1-CLICK Web hosting - Easy Filehosting[/url]
     [url=http://rapidshare.com/files/293528521/Godfather.SF.org.part04.rar]RapidShare: 1-CLICK Web hosting - Easy Filehosting[/url]
     [url=http://rapidshare.com/files/293531524/Godfather.SF.org.part05.rar]RapidShare: 1-CLICK Web hosting - Easy Filehosting[/url]
     [url=http://rapidshare.com/files/293534793/Godfather.SF.org.part06.rar]RapidShare: 1-CLICK Web hosting - Easy Filehosting[/url]
     [url=http://rapidshare.com/files/293537742/Godfather.SF.org.part07.rar]RapidShare: 1-CLICK Web hosting - Easy Filehosting[/url]
     [url=http://rapidshare.com/files/293540926/Godfather.SF.org.part08.rar]RapidShare: 1-CLICK Web hosting - Easy Filehosting[/url]
     [url=http://rapidshare.com/files/293543684/Godfather.SF.org.part09.rar]RapidShare: 1-CLICK Web hosting - Easy Filehosting[/url]
     [url=http://rapidshare.com/files/293546218/Godfather.SF.org.part10.rar]RapidShare: 1-CLICK Web hosting - Easy Filehosting[/url]
     [url=http://rapidshare.com/files/293548980/Godfather.SF.org.part11.rar]RapidShare: 1-CLICK Web hosting - Easy Filehosting[/url]
     [url=http://rapidshare.com/files/293551632/Godfather.SF.org.part12.rar]RapidShare: 1-CLICK Web hosting - Easy Filehosting[/url]
     [url=http://rapidshare.com/files/293555063/Godfather.SF.org.part13.rar]RapidShare: 1-CLICK Web hosting - Easy Filehosting[/url]
     [url=http://rapidshare.com/files/293557414/Godfather.SF.org.part14.rar]RapidShare: 1-CLICK Web hosting - Easy Filehosting[/url]
     [url=http://rapidshare.com/files/293558429/Godfather.SF.org.part15.rar]RapidShare: 1-CLICK Web hosting - Easy Filehosting[/url]
:sifra:

SerbianForum.org
 
Poslednja izmena:
LEGEND
Učlanjen(a)
05.05.2009
Poruka
4.736
The Conversation (1974)

The Conversation (1974) + prevod
IMDb: 8.1/10 28,523 votes Top 250: #216 Nominated for 3 Oscars. Another 11 wins & 11 nominations


2004589308587994167_rs.jpg


:info:

Kod:
[/URL][URL="http://www.imdb.com/title/tt0071360/"]The Conversation (1974)[/URL]

Harry Caul is an invader of privacy. The best in the business. He can record any conversation between two people anywhere. So far, three people are dead because of him.

CD1
Format : AVI
Format/Info : Audio Video Interleave
File size : 699 MiB
Duration : 49mn 18s
Overall bit rate : 1 983 Kbps
Writing application : Nandub v1.0rc2
Writing library : Nandub build 1852/release

Video
ID : 0
Format : MPEG-4 Visual
Format settings, BVOP : Yes
Format settings, QPel : No
Format settings, GMC : No warppoints
Format settings, Matrix : Default (MPEG)
Codec ID : XVID
Codec ID/Hint : XviD
Duration : 49mn 18s
Bit rate : 1 527 Kbps
Width : 592 pixels
Height : 320 pixels
Display aspect ratio : 1.850
Frame rate : 23.976 fps
Resolution : 24 bits
Scan type : Progressive
Bits/(Pixel*Frame) : 0.336
Stream size : 539 MiB (77%)

Audio
ID : 1
Format : AC-3
Format/Info : Audio Coding 3
Codec ID : 2000
Duration : 49mn 18s
Bit rate mode : Constant
Bit rate : 448 Kbps
Channel(s) : 6 channels
Channel positions : Front: L C R, Surround: L R, LFE
Sampling rate : 48.0 KHz
Stream size : 158 MiB (23%)
Alignment : Aligned on interleaves
Interleave, duration : 64 ms (1.53 video frames)
Interleave, preload duration : 64 ms

CD2
Format : AVI
Format/Info : Audio Video Interleave
File size : 700 MiB
Duration : 1h 4mn
Overall bit rate : 1 523 Kbps
Writing application : Nandub v1.0rc2
Writing library : Nandub build 1852/release

Video
ID : 0
Format : MPEG-4 Visual
Format settings, BVOP : Yes
Format settings, QPel : No
Format settings, GMC : No warppoints
Format settings, Matrix : Default (MPEG)
Codec ID : XVID
Codec ID/Hint : XviD
Duration : 1h 4mn
Bit rate : 1 067 Kbps
Width : 592 pixels
Height : 320 pixels
Display aspect ratio : 1.850
Frame rate : 23.976 fps
Resolution : 24 bits
Scan type : Progressive
Bits/(Pixel*Frame) : 0.235
Stream size : 490 MiB (70%)

Audio
ID : 1
Format : AC-3
Format/Info : Audio Coding 3
Codec ID : 2000
Duration : 1h 4mn
Bit rate mode : Constant
Bit rate : 448 Kbps
Channel(s) : 6 channels
Channel positions : Front: L C R, Surround: L R, LFE
Sampling rate : 48.0 KHz
Video delay : 20ms
Stream size : 206 MiB (29%)
Alignment : Split accross interleaves
Interleave, duration : 64 ms (1.53 video frames)
Interleave, preload duration : 64 ms
:screen:




:download:

Kod:
 [url=http://rapidshare.com/files/278988130/Conversation.SF.org.part01.rar]RapidShare: 1-CLICK Web hosting - Easy Filehosting[/url]
 [url=http://rapidshare.com/files/278997764/Conversation.SF.org.part02.rar]RapidShare: 1-CLICK Web hosting - Easy Filehosting[/url]
 [url=http://rapidshare.com/files/279007484/Conversation.SF.org.part03.rar]RapidShare: 1-CLICK Web hosting - Easy Filehosting[/url]
 [url=http://rapidshare.com/files/279017650/Conversation.SF.org.part04.rar]RapidShare: 1-CLICK Web hosting - Easy Filehosting[/url]
 [url=http://rapidshare.com/files/279028243/Conversation.SF.org.part05.rar]RapidShare: 1-CLICK Web hosting - Easy Filehosting[/url]
 [url=http://rapidshare.com/files/279047276/Conversation.SF.org.part06.rar]RapidShare: 1-CLICK Web hosting - Easy Filehosting[/url]
 [url=http://rapidshare.com/files/279057289/Conversation.SF.org.part07.rar]RapidShare: 1-CLICK Web hosting - Easy Filehosting[/url]
 [url=http://rapidshare.com/files/279066843/Conversation.SF.org.part08.rar]RapidShare: 1-CLICK Web hosting - Easy Filehosting[/url]
 [url=http://rapidshare.com/files/279077687/Conversation.SF.org.part09.rar]RapidShare: 1-CLICK Web hosting - Easy Filehosting[/url]
 [url=http://rapidshare.com/files/279089197/Conversation.SF.org.part10.rar]RapidShare: 1-CLICK Web hosting - Easy Filehosting[/url]
 [url=http://rapidshare.com/files/279098384/Conversation.SF.org.part11.rar]RapidShare: 1-CLICK Web hosting - Easy Filehosting[/url]
 [url=http://rapidshare.com/files/279108251/Conversation.SF.org.part12.rar]RapidShare: 1-CLICK Web hosting - Easy Filehosting[/url]
 [url=http://rapidshare.com/files/279118046/Conversation.SF.org.part13.rar]RapidShare: 1-CLICK Web hosting - Easy Filehosting[/url]
 [url=http://rapidshare.com/files/279128165/Conversation.SF.org.part14.rar]RapidShare: 1-CLICK Web hosting - Easy Filehosting[/url]
 [url=http://rapidshare.com/files/279133494/Conversation.SF.org.part15.rar]RapidShare: 1-CLICK Web hosting - Easy Filehosting[/url]
:sifra:

SerbianForum.org
 
LEGEND
Učlanjen(a)
05.05.2009
Poruka
4.736
The Godfather: Part II (1974)

The Godfather: Part II (1974) + prevod
IMDb: 9.0/10 215,625 votes Top 250: #3 Won 6 Oscars. Another 7 wins & 15 nominations


2yjqaoj.jpg


:info:


Kod:
[/URL][URL="http://www.imdb.com/title/tt0071562/"]The Godfather: Part II (1974)[/URL]

The continuing saga of the Corleone crime family tells the story of a young Vito Corleone growing up in Sicily and in 1910s New York; and follows Michael Corleone in the 1950s as he attempts to expand the family business into Las Vegas, Hollywood and Cuba.

CD1
Format : AVI
Format/Info : Audio Video Interleave
File size : 700 MiB
Duration : 1h 39mn
Overall bit rate : 980 Kbps
Movie name : The Godfather Part 2 CD 1
Director : HOSTiLE
Subject : The Godfather Part 2 CD 1
Writing application : Nandub v1.0rc2
Writing library : Nandub build 1853/release

Video
ID : 0
Format : MPEG-4 Visual
Codec ID : DIV3
Codec ID/Hint : DivX 3 Low
Duration : 1h 39mn
Bit rate : 840 Kbps
Width : 640 pixels
Height : 352 pixels
Display aspect ratio : 16:9
Frame rate : 23.976 fps
Resolution : 24 bits
Bits/(Pixel*Frame) : 0.155
Stream size : 600 MiB (86%)

Audio
ID : 1
Format : MPEG Audio
Format version : Version 1
Format profile : Layer 3
Codec ID : 55
Codec ID/Hint : MP3
Duration : 1h 39mn
Bit rate mode : Constant
Bit rate : 128 Kbps
Channel(s) : 2 channels
Sampling rate : 48.0 KHz
Resolution : 16 bits
Stream size : 91.4 MiB (13%)
Alignment : Aligned on interleaves
Interleave, duration : 24 ms (0.58 video frame)
Interleave, preload duration : 480 ms
Writing library : LAME3.90a
Encoding settings : -m s -V 4 -q 2

CD2
Format : AVI
Format/Info : Audio Video Interleave
File size : 697 MiB
Duration : 1h 38mn
Overall bit rate : 986 Kbps
Movie name : The Godfather Part 2 CD 2
Director : HOSTiLE
Subject : The Godfather Part 2 CD 2
Writing application : Nandub v1.0rc2
Writing library : Nandub build 1853/release

Video
ID : 0
Format : MPEG-4 Visual
Codec ID : DIV3
Codec ID/Hint : DivX 3 Low
Duration : 1h 38mn
Bit rate : 846 Kbps
Width : 640 pixels
Height : 352 pixels
Display aspect ratio : 16:9
Frame rate : 23.976 fps
Resolution : 24 bits
Bits/(Pixel*Frame) : 0.157
Stream size : 598 MiB (86%)

Audio
ID : 1
Format : MPEG Audio
Format version : Version 1
Format profile : Layer 3
Codec ID : 55
Codec ID/Hint : MP3
Duration : 1h 38mn
Bit rate mode : Constant
Bit rate : 128 Kbps
Channel(s) : 2 channels
Sampling rate : 48.0 KHz
Resolution : 16 bits
Stream size : 90.4 MiB (13%)
Alignment : Aligned on interleaves
Interleave, duration : 24 ms (0.58 video frame)
Interleave, preload duration : 480 ms
:screen:




:download:

Kod:
 [url=http://rapidshare.com/files/290901213/Godfather.2.SF.org.part01.rar]RapidShare: 1-CLICK Web hosting - Easy Filehosting[/url]
 [url=http://rapidshare.com/files/290955961/Godfather.2.SF.org.part02.rar]RapidShare: 1-CLICK Web hosting - Easy Filehosting[/url]
 [url=http://rapidshare.com/files/291648971/Godfather.2.SF.org.part03.rar]RapidShare: 1-CLICK Web hosting - Easy Filehosting[/url]
 [url=http://rapidshare.com/files/291956907/Godfather.2.SF.org.part04.rar]RapidShare: 1-CLICK Web hosting - Easy Filehosting[/url]
 [url=http://rapidshare.com/files/293421707/Godfather.2.SF.org.part05.rar]RapidShare: 1-CLICK Web hosting - Easy Filehosting[/url]
 [url=http://rapidshare.com/files/293425571/Godfather.2.SF.org.part06.rar]RapidShare: 1-CLICK Web hosting - Easy Filehosting[/url]
 [url=http://rapidshare.com/files/293430452/Godfather.2.SF.org.part07.rar]RapidShare: 1-CLICK Web hosting - Easy Filehosting[/url]
 [url=http://rapidshare.com/files/293434586/Godfather.2.SF.org.part08.rar]RapidShare: 1-CLICK Web hosting - Easy Filehosting[/url]
 [url=http://rapidshare.com/files/293439164/Godfather.2.SF.org.part09.rar]RapidShare: 1-CLICK Web hosting - Easy Filehosting[/url]
 [url=http://rapidshare.com/files/293443205/Godfather.2.SF.org.part10.rar]RapidShare: 1-CLICK Web hosting - Easy Filehosting[/url]
 [url=http://rapidshare.com/files/293447921/Godfather.2.SF.org.part11.rar]RapidShare: 1-CLICK Web hosting - Easy Filehosting[/url]
 [url=http://rapidshare.com/files/293452261/Godfather.2.SF.org.part12.rar]RapidShare: 1-CLICK Web hosting - Easy Filehosting[/url]
 [url=http://rapidshare.com/files/293456468/Godfather.2.SF.org.part13.rar]RapidShare: 1-CLICK Web hosting - Easy Filehosting[/url]
 [url=http://rapidshare.com/files/293460275/Godfather.2.SF.org.part14.rar]RapidShare: 1-CLICK Web hosting - Easy Filehosting[/url]
 [url=http://rapidshare.com/files/293461822/Godfather.2.SF.org.part15.rar]RapidShare: 1-CLICK Web hosting - Easy Filehosting[/url]
:sifra:

SerbianForum.org
 
LEGEND
Učlanjen(a)
05.05.2009
Poruka
4.736
Dog Day Afternoon (1975)

Dog Day Afternoon (1975) + prevod
IMDb: 8.2/10 51,240 votes Won Oscar. Another 10 wins & 17 nominations

51eJD88XZTL.jpg


:info:

Kod:
[/URL][URL="http://www.imdb.com/title/tt0072890/"]Dog Day Afternoon (1975)[/URL]

Based upon a real-life story that happened in the early seventies in which the Chase Manhattan Bank in Flatbush, Brooklyn, was held siege by a gay bank robber determined to steal enough money for his male lover to undergo a sex change operation. On a hot summer afternoon, the First Savings Bank of Brooklyn is held up by Sonny and Sal, two down-and-out characters. Although the bank manager and female tellers agree not to interfere with the robbery, Sonny finds that there's actually nothing much to steal, as most of the cash has been picked up for the day. Sonny then gets an unexpected phone call from Police Captain Moretti, who tells him the place is surrounded by the city's entire police force. Having few options under the circumstances, Sonny nervously bargains with Moretti, demanding safe escort to the airport and a plane out of the country in return for the bank employees' safety.

:screen:



:download:

Kod:
 [url=http://rapidshare.com/files/274026555/Dog.Day.SF.org.part1.rar]RapidShare: 1-CLICK Web hosting - Easy Filehosting[/url]
 [url=http://rapidshare.com/files/274051187/Dog.Day.SF.org.part2.rar]RapidShare: 1-CLICK Web hosting - Easy Filehosting[/url]
 [url=http://rapidshare.com/files/274069629/Dog.Day.SF.org.part3.rar]RapidShare: 1-CLICK Web hosting - Easy Filehosting[/url]
 [url=http://rapidshare.com/files/274076227/Dog.Day.SF.org.part4.rar]RapidShare: 1-CLICK Web hosting - Easy Filehosting[/url]
 [url=http://rapidshare.com/files/274082912/Dog.Day.SF.org.part5.rar]RapidShare: 1-CLICK Web hosting - Easy Filehosting[/url]
 [url=http://rapidshare.com/files/274089676/Dog.Day.SF.org.part6.rar]RapidShare: 1-CLICK Web hosting - Easy Filehosting[/url]
 [url=http://rapidshare.com/files/274095270/Dog.Day.SF.org.part7.rar]RapidShare: 1-CLICK Web hosting - Easy Filehosting[/url]
:sifra:

SerbianForum.org
 
LEGEND
Učlanjen(a)
05.05.2009
Poruka
4.736
The Deer Hunter (1978)

The Deer Hunter (1978) + prevod
IMDb: 8.2/10 77,317 votes Won 5 Oscars. Another 16 wins & 19 nominations Top 250: #134

2h5s379.jpg


:info:

Kod:
[/URL][URL="http://www.imdb.com/title/tt0077416/"]The Deer Hunter (1978)[/URL]

Michael, Nick, and Steven are three buddies from the steel mill town of Clairton, Penn.They are like schoolmates, hanging out in a local bar and enjoying weekends of deer-hunting. Michael and Nick are also both in love with Linda, who seems to juggle both of the men. But their placid life is soon to be changed after they are enlisted in the airborne infantry of Vietnam. So they all celebrate a goodbye at Steven's wedding and they leave to Vietnam, where they are captured by the enemy and forced to play a game of Russian Roulette. They escape and return home, but their lives are forever changed. Nick stays in Vietnam, Michael returns to Linda, and Steven is handicapped after losing a leg in the war.

CD1
Format : AVI
Format/Info : Audio Video Interleave
File size : 698 MiB
Duration : 53mn 39s
Overall bit rate : 1 818 Kbps
Writing application : Nandub v1.0rc2
Writing library : Nandub build 1852/release

Video
ID : 0
Format : MPEG-4 Visual
Format profile : [email protected]
Format settings, BVOP : Yes
Format settings, QPel : No
Format settings, GMC : No warppoints
Format settings, Matrix : Default (H.263)
Codec ID : XVID
Codec ID/Hint : XviD
Duration : 53mn 39s
Bit rate : 1 361 Kbps
Width : 640 pixels
Height : 256 pixels
Display aspect ratio : 2.500
Frame rate : 23.976 fps
Resolution : 24 bits
Colorimetry : 4:2:0
Scan type : Progressive
Bits/(Pixel*Frame) : 0.346
Stream size : 522 MiB (75%)
Writing library : XviD 1.1.0 (UTC 2005-11-22)

Audio
ID : 1
Format : AC-3
Format/Info : Audio Coding 3
Codec ID : 2000
Duration : 53mn 39s
Bit rate mode : Constant
Bit rate : 448 Kbps
Channel(s) : 6 channels
Channel positions : Front: L C R, Surround: L R, LFE
Sampling rate : 48.0 KHz
Stream size : 172 MiB (25%)
Alignment : Split accross interleaves
Interleave, duration : 42 ms (1.00 video frame)
Interleave, preload duration : 500 ms

CD2
Format/Info : Audio Video Interleave
FileSize/String : 706 MiB
Duration/String : 55mn 26s
OverallBitRate/String : 1 780 Kbps
Encoded_Application : Nandub v1.0rc2
Encoded_Library/String : Nandub build 1852/release

Video
ID/String : 0
Format : MPEG-4 Visual
Format_Profile : [email protected]
Format_Settings_BVOP/String : Yes
Format_Settings_QPel/String : No
Format_Settings_GMC/String : No warppoints
Format_Settings_Matrix/String : Default (H.263)
CodecID : XVID
CodecID/Hint : XviD
Duration/String : 55mn 26s
BitRate/String : 1 323 Kbps
Width/String : 640 pixels
Height/String : 256 pixels
DisplayAspectRatio/String : 2.500
FrameRate/String : 23.976 fps
Resolution/String : 24 bits
Colorimetry : 4:2:0
ScanType/String : Progressive
Bits-(Pixel*Frame) : 0.337
StreamSize/String : 524 MiB (74%)
Encoded_Library/String : XviD 1.1.0 (UTC 2005-11-22)

Audio
ID/String : 1
Format : AC-3
Format/Info : Audio Coding 3
CodecID : 2000
Duration/String : 55mn 26s
BitRate_Mode/String : Constant
BitRate/String : 448 Kbps
Channel(s)/String : 6 channels
ChannelPositions : Front: L C R, Surround: L R, LFE
SamplingRate/String : 48.0 KHz
Video_Delay/String : 21ms
StreamSize/String : 178 MiB (25%)
Alignment/String : Split accross interleaves
Interleave_Duration/String : 42 ms (1.00 video frame)
Interleave_Preload/String : 500 ms

CD3
Format : AVI
Format/Info : Audio Video Interleave
FileSize/String : 702 MiB
Duration/String : 1h 14mn
OverallBitRate/String : 1 315 Kbps
Encoded_Application : Nandub v1.0rc2
Encoded_Library/String : Nandub build 1852/release

Video
ID/String : 0
Format : MPEG-4 Visual
Format_Profile : [email protected]
Format_Settings_BVOP/String : Yes
Format_Settings_QPel/String : No
Format_Settings_GMC/String : No warppoints
Format_Settings_Matrix/String : Default (H.263)
CodecID : XVID
CodecID/Hint : XviD
Duration/String : 1h 14mn
BitRate/String : 858 Kbps
Width/String : 640 pixels
Height/String : 256 pixels
DisplayAspectRatio/String : 2.500
FrameRate/String : 23.976 fps
Resolution/String : 24 bits
Colorimetry : 4:2:0
ScanType/String : Progressive
Bits-(Pixel*Frame) : 0.218
StreamSize/String : 458 MiB (65%)
Encoded_Library/String : XviD 1.1.0 (UTC 2005-11-22)

Audio
ID/String : 1
Format : AC-3
Format/Info : Audio Coding 3
CodecID : 2000
Duration/String : 1h 14mn
BitRate_Mode/String : Constant
BitRate/String : 448 Kbps
Channel(s)/String : 6 channels
ChannelPositions : Front: L C R, Surround: L R, LFE
SamplingRate/String : 48.0 KHz
Video_Delay/String : 18ms
StreamSize/String : 239 MiB (34%)
Alignment/String : Split accross interleaves
Interleave_Duration/String : 42 ms (1.00 video frame)
Interleave_Preload/String : 500 ms
:screen:





:download:

Kod:
 [url=http://rapidshare.com/files/276425650/Lovac.Na.Jelene.SF.org.part01.rar]RapidShare: 1-CLICK Web hosting - Easy Filehosting[/url]
 [url=http://rapidshare.com/files/276435765/Lovac.Na.Jelene.SF.org.part02.rar]RapidShare: 1-CLICK Web hosting - Easy Filehosting[/url]
 [url=http://rapidshare.com/files/276445652/Lovac.Na.Jelene.SF.org.part03.rar]RapidShare: 1-CLICK Web hosting - Easy Filehosting[/url]
 [url=http://rapidshare.com/files/276468746/Lovac.Na.Jelene.SF.org.part04.rar]RapidShare: 1-CLICK Web hosting - Easy Filehosting[/url]
 [url=http://rapidshare.com/files/276478698/Lovac.Na.Jelene.SF.org.part05.rar]RapidShare: 1-CLICK Web hosting - Easy Filehosting[/url]
 [url=http://rapidshare.com/files/276553173/Lovac.Na.Jelene.SF.org.part06.rar]RapidShare: 1-CLICK Web hosting - Easy Filehosting[/url]
 [url=http://rapidshare.com/files/276561954/Lovac.Na.Jelene.SF.org.part07.rar]RapidShare: 1-CLICK Web hosting - Easy Filehosting[/url]
 [url=http://rapidshare.com/files/276569944/Lovac.Na.Jelene.SF.org.part08.rar]RapidShare: 1-CLICK Web hosting - Easy Filehosting[/url]
 [url=http://rapidshare.com/files/276578236/Lovac.Na.Jelene.SF.org.part09.rar]RapidShare: 1-CLICK Web hosting - Easy Filehosting[/url]
 [url=http://rapidshare.com/files/276586015/Lovac.Na.Jelene.SF.org.part10.rar]RapidShare: 1-CLICK Web hosting - Easy Filehosting[/url]
 [url=http://rapidshare.com/files/276596579/Lovac.Na.Jelene.SF.org.part11.rar]RapidShare: 1-CLICK Web hosting - Easy Filehosting[/url]
 [url=http://rapidshare.com/files/276603509/Lovac.Na.Jelene.SF.org.part12.rar]RapidShare: 1-CLICK Web hosting - Easy Filehosting[/url]
 [url=http://rapidshare.com/files/276610137/Lovac.Na.Jelene.SF.org.part13.rar]RapidShare: 1-CLICK Web hosting - Easy Filehosting[/url]
 [url=http://rapidshare.com/files/276616818/Lovac.Na.Jelene.SF.org.part14.rar]RapidShare: 1-CLICK Web hosting - Easy Filehosting[/url]
 [url=http://rapidshare.com/files/276623401/Lovac.Na.Jelene.SF.org.part15.rar]RapidShare: 1-CLICK Web hosting - Easy Filehosting[/url]
 [url=http://rapidshare.com/files/276629239/Lovac.Na.Jelene.SF.org.part16.rar]RapidShare: 1-CLICK Web hosting - Easy Filehosting[/url]
 [url=http://rapidshare.com/files/276635207/Lovac.Na.Jelene.SF.org.part17.rar]RapidShare: 1-CLICK Web hosting - Easy Filehosting[/url]
 [url=http://rapidshare.com/files/276641211/Lovac.Na.Jelene.SF.org.part18.rar]RapidShare: 1-CLICK Web hosting - Easy Filehosting[/url]
 [url=http://rapidshare.com/files/276646904/Lovac.Na.Jelene.SF.org.part19.rar]RapidShare: 1-CLICK Web hosting - Easy Filehosting[/url]
 [url=http://rapidshare.com/files/276652478/Lovac.Na.Jelene.SF.org.part20.rar]RapidShare: 1-CLICK Web hosting - Easy Filehosting[/url]
 [url=http://rapidshare.com/files/276657912/Lovac.Na.Jelene.SF.org.part21.rar]RapidShare: 1-CLICK Web hosting - Easy Filehosting[/url]
 [url=http://rapidshare.com/files/276663524/Lovac.Na.Jelene.SF.org.part22.rar]RapidShare: 1-CLICK Web hosting - Easy Filehosting[/url]
:sifra:

SerbianForum.org
 
LEGEND
Učlanjen(a)
05.05.2009
Poruka
4.736
The Godfather (1972)

The Godfather (1972)DVDRip.MKV + prevod
IMDb: 9.2/10 396,303 votes Top 250: #2 Won 3 Oscars. Another 19 wins & 17 nominations


qmxo1x.jpg



Kod:
http://www.imdb.com/title/tt0068646/


2psi04l.jpg



Format : Matroska
File size : 597 MiB
Duration : 2h 57mn
Overall bit rate : 471 Kbps

Video
ID : 1
Format : AVC
Format/Info : Advanced Video Codec
Duration : 2h 56mn
Nominal bit rate : 433 Kbps
Width : 912 pixels
Height : 512 pixels
Display aspect ratio : 16:9
Frame rate : 23.976 fps
Resolution : 24 bits
Colorimetry : 4:2:0

Audio
ID : 2
Format : AAC
Format/Info : Advanced Audio Codec
Duration : 2h 57mn
Channel(s) : 2 channels
Channel positions : L R
Sampling rate : 48.0 KHz
Resolution : 16 bits



Kod:
http://rapidshare.com/files/400921808/The_Godfather__1972_DVDRip.MKV.part1.rar
http://rapidshare.com/files/400925686/The_Godfather__1972_DVDRip.MKV.part2.rar
http://rapidshare.com/files/400930139/The_Godfather__1972_DVDRip.MKV.part3.rar
http://rapidshare.com/files/400934985/The_Godfather__1972_DVDRip.MKV.part4.rar
 
LEGEND
Učlanjen(a)
05.05.2009
Poruka
4.736
The Godfather: Part II (1974)

The Godfather: Part II (1974)DVDRip.MKV + prevod
IMDb: 9.0/10 235,117 votes Top 250: #3 Won 6 Oscars. Another 7 wins & 15 nominations


33tp9fn.jpg



Kod:
http://www.imdb.com/title/tt0071562/


The early life and career of Vito Corleone in 1920s New York is portrayed while his son, Michael, expands and tightens his grip on his crime syndicate stretching from Lake Tahoe, Nevada to pre-revolution 1958 Cuba.


2lmm5w1.jpg



Format : Matroska
File size : 750 MiB
Duration : 3h 22mn
Overall bit rate : 519 Kbps

Video
ID : 1
Format : AVC
Format/Info : Advanced Video Codec
Duration : 3h 21mn
Nominal bit rate : 481 Kbps
Width : 912 pixels
Height : 512 pixels
Display aspect ratio : 16:9
Frame rate : 23.976 fps
Resolution : 24 bits
Colorimetry : 4:2:0

Audio
ID : 2
Format : AAC
Format/Info : Advanced Audio Codec
Duration : 3h 22mn
Channel(s) : 2 channels
Channel positions : L R
Sampling rate : 48.0 KHz
Resolution : 16 bits


Kod:
http://rapidshare.com/files/400935728/The_Godfather_Part_II__1974_DVDRip.MKV.part1.rar
http://rapidshare.com/files/400940818/The_Godfather_Part_II__1974_DVDRip.MKV.part2.rar
http://rapidshare.com/files/400945981/The_Godfather_Part_II__1974_DVDRip.MKV.part3.rar
http://rapidshare.com/files/400950905/The_Godfather_Part_II__1974_DVDRip.MKV.part4.rar
 
LEGEND
Učlanjen(a)
05.05.2009
Poruka
4.736
The Deer Hunter (1978)

The Deer Hunter (1978)DVDRip.MKV + prevod
IMDb: 8.2/10 85,432 votes Won 5 Oscars. Another 16 wins & 19 nominations


i5d4zq.jpg


Kod:
http://www.imdb.com/title/tt0077416/

Michael, Steven and Nick are young factory workers from Pennsylvania who enlist into the Army to fight in Vietnam. Before they go, Steven marries the pregnant Angela and their wedding-party is also the men's farewell party. After some time and many horrors the three friends fall in the hands of the Vietcong and are brought to a prison camp in which they are forced to play Russian roulette against each other. Michael makes it possible for them to escape, but they soon get separated again.


idrbqe.jpg



Format : Matroska
File size : 697 MiB
Duration : 3h 3mn
Overall bit rate : 531 Kbps

Video
ID : 1
Format : AVC
Format/Info : Advanced Video Codec
Duration : 3h 3mn
Nominal bit rate : 493 Kbps
Width : 1 280 pixels
Height : 544 pixels
Display aspect ratio : 2.35:1
Frame rate : 23.976 fps
Resolution : 24 bits
Colorimetry : 4:2:0

Audio
ID : 2
Format : AAC
Format/Info : Advanced Audio Codec
Duration : 3h 3mn
Channel(s) : 2 channels
Channel positions : L R
Sampling rate : 48.0 KHz
Resolution : 16 bits


Kod:
http://rapidshare.com/files/401367778/The_Deer_Hunter__1978_DVDRip.MKV.part1.rar
http://rapidshare.com/files/401373640/The_Deer_Hunter__1978_DVDRip.MKV.part2.rar
http://rapidshare.com/files/401379624/The_Deer_Hunter__1978_DVDRip.MKV.part3.rar
http://rapidshare.com/files/401386106/The_Deer_Hunter__1978_DVDRip.MKV.part4.rar
 
LEGEND
Učlanjen(a)
05.05.2009
Poruka
4.736
Dog Day Afternoon (1975)

Dog Day Afternoon (1975)DVDRip.MKV + prevod
IMDb: 8.2/10 57,407 votes Top 250: #166 Won Oscar. Another 11 wins & 17 nominations


1zevwy9.jpg



Kod:
http://www.imdb.com/title/tt0072890/

The robbery should have taken 10 minutes. 4 hours later, the bank was like a circus sideshow. 8 hours later, it was the hottest thing on live T.V. 12 hours later, it was all history. And it's all true


2i5895.jpg



Format : Matroska
File size : 398 MiB
Duration : 2h 3mn
Overall bit rate : 451 Kbps

Video
ID : 1
Format : AVC
Format/Info : Advanced Video Codec
Duration : 2h 3mn
Nominal bit rate : 423 Kbps
Width : 640 pixels
Height : 352 pixels
Display aspect ratio : 16:9
Frame rate : 23.976 fps
Resolution : 24 bits
Colorimetry : 4:2:0

Audio
ID : 2
Format : AAC
Format/Info : Advanced Audio Codec
Duration : 2h 3mn
Channel(s) : 2 channels
Channel positions : L R
Sampling rate : 48.0 KHz
Resolution : 16 bits


Kod:
http://rapidshare.com/files/401354962/Dog_Day_Afternoon__1975_DVDRip.MKV.part1.rar
http://rapidshare.com/files/401360685/Dog_Day_Afternoon__1975_DVDRip.MKV.part2.rar
http://rapidshare.com/files/401367263/Dog_Day_Afternoon__1975_DVDRip.MKV.part3.rar
 
Top