Šta je novo?

Jesse Stone Lost in Paradise (2015)

Član
Učlanjen(a)
09.05.2011
Poruka
7.549
Jesse Stone Lost in Paradise (2015) WEB-DL XviD MP3 RARBG
File Size: 1.17 GiB

jesse.jpg


RELEAsEN0TEs
Kod:
Video
ID                                       : 0
Format                                   : MPEG-4 Visual
Format profile                           : [email protected]
Format settings, BVOP                    : No
Format settings, QPel                    : No
Format settings, GMC                     : No warppoints
Format settings, Matrix                  : Default (H.263)
Codec ID                                 : XVID
Codec ID/Hint                            : XviD
Duration                                 : 1h 29mn
Bit rate                                 : 1 683 Kbps
Width                                    : 720 pixels
Height                                   : 400 pixels
Display aspect ratio                     : 16:9
Frame rate                               : 23.976 fps
Color space                              : YUV
Chroma subsampling                       : 4:2:0
Bit depth                                : 8 bits
Scan type                                : Progressive
Compression mode                         : Lossy
Bits/(Pixel*Frame)                       : 0.244
Stream size                              : 1.05 GiB (89%)
Writing library                          : Lavc56.13.100

Audio
ID                                       : 1
Format                                   : MPEG Audio
Format version                           : Version 1
Format profile                           : Layer 3
Mode                                     : Joint stereo
Mode extension                           : MS Stereo
Codec ID                                 : 55
Codec ID/Hint                            : MP3
Duration                                 : 1h 29mn
Bit rate mode                            : Constant
Bit rate                                 : 192 Kbps
Channel(s)                               : 2 channels
Sampling rate                            : 48.0 KHz
Compression mode                         : Lossy
Stream size                              : 122 MiB (10%)
Alignment                                : Aligned on interleaves
Interleave, duration                     : 24 ms (0.58 video frame)
Interleave, preload duration             : 504 ms
Writing library                          : LAME3.99.5

IMDB Ratings : 7.9/10 >> 380 users >> Top 250: #N/A
Kod:
http://imdb.com/title/tt4505830/

sCREENsH0Ts

p00004.png


p00005.png


p00006.png


D0WNL0AD
Kod:
http://rapidgator.net/file/99a456279877e5d6bed735ed731930ba/jSLinPar.WEB-DL.RBG.rar.html
http://uploaded.net/file/j6fb510z/jSLinPar.WEB-DL.RBG.rar
http://k2s.cc/file/514a2dca6c655/jSLinPar.WEB-DL.RBG.rar
http://alfafile.net/file/z3FM/jSLinPar.WEB-DL.RBG.rar
http://nitroflare.com/view/2B27A66B208A7B6/jSLinPar.WEB-DL.RBG.rar
 
Top