Šta je novo?

Jesen Samuraja aka The Samurai in Autumn (2016)

Učlanjen(a)
26.03.2010
Poruka
97
If94bnb.jpg




Kod:
http://www.imdb.com/title/tt5004422/


Film Jesen samuraja je romantična komedija sa elementima sportskog filma. Glavni junak, Vladica (Petar Strugar) je profesionalni karatista, šarmantni bonvivan koji je nekada bio veliki talenat, ali nije napravio veliku karijeru zbog prevelike sklonosti ka provodu i noćnom životu. Po okončanju karijere vraća se u rodni grad i zaljubljuje se u Snežanu (Hristina Popović) i vezuje za nju i njenog malog sina Vukašina. Vladica želi da se brine o njima, ali shvata da ne ume da radi ništa osim karatea. Njegova potraga za poslom koji bi mu omogućio da brine o porodici koju je upravo počeo da stvara, dovodi ga u niz urnebesnih komičnih situacija.

Žanr: Komedija
Režija: Danilo Bećković
Scenario: Dimitrije Vojnov
Uloge: Petar Strugar, Hristina Popović, Nikola Kojo, Andrija Milošević, Sergej Trifunović, Andrija Milošević, Petar Novićević, Miodrag Krstović,
Katarina Žutić , Vesna Trivalić , Tihomir Stanić.
Godina: 2016.
Zemlja: Srbija


Kod:
https://mega.nz/#!2s0BUQwa!Lu5kGTUId7P8cDxjZwG8wpHldd0-FxecYrTB3MTknNI
 
Poslednja izmena:
MODERATOR
Učlanjen(a)
10.10.2009
Poruka
13.331
Jesen samuraja (2016) 1080p HD DD5.1 x264 by Wolf
(MKV) HQ

ZnIRIpD.jpg


Kod:
 https://www.imdb.com/title/tt5004422/

MediaInfo:
General
Unique ID : 158495132314853152676458145063263717988 (0x773D0D58D0F966EB042147E12F7ECA64)
Complete name : Jesen samuraja (2016) 1080p HD DD5.1 x264 by Wolf.mkv
Format : Matroska
Format version : Version 4
File size : 2.00 GiB
Duration : 1 h 48 min
Overall bit rate : 2 637 kb/s
Encoded date : UTC 2022-02-06 18:45:58
Writing application : mkvmerge v65.0.0 ('Too Much') 64-bit
Writing library : libebml v1.4.2 + libmatroska v1.6.4

Video
ID : 1
Format : AVC
Format/Info : Advanced Video Codec
Format profile : High@L5.1
Format settings : CABAC / 16 Ref Frames
Format settings, CABAC : Yes
Format settings, Reference : 16 frames
Codec ID : V_MPEG4/ISO/AVC
Duration : 1 h 48 min
Bit rate : 2 000 kb/s
Width : 1 920 pixels
Height : 704 pixels
Display aspect ratio : 2.727
Frame rate mode : Constant
Frame rate : 25.000 FPS
Color space : YUV
Chroma subsampling : 4:2:0
Bit depth : 8 bits
Scan type : Progressive
Bits/(Pixel*Frame) : 0.059
Stream size : 1.52 GiB (76%)
Title : Jesen samuraja (2016)
Writing library : x264 core 163 r3059 b684ebe0
Encoding settings : cabac=1 / ref=16 / deblock=1:-2:-2 / analyse=0x3:0x133 / me=umh / subme=10 / psy=1 / psy_rd=1.00:0.25 / mixed_ref=1 / me_range=24 / chroma_me=1 / trellis=2 / 8x8dct=1 / cqm=0 / deadzone=6,6 / fast_pskip=1 / chroma_qp_offset=-4 / threads=6 / lookahead_threads=1 / sliced_threads=0 / nr=0 / decimate=0 / interlaced=0 / bluray_compat=0 / constrained_intra=0 / bframes=8 / b_pyramid=2 / b_adapt=2 / b_bias=0 / direct=3 / weightb=1 / open_gop=0 / weightp=2 / keyint=250 / keyint_min=25 / scenecut=40 / intra_refresh=0 / rc_lookahead=60 / rc=2pass / mbtree=1 / bitrate=2000 / ratetol=1.0 / qcomp=0.80 / qpmin=0 / qpmax=69 / qpstep=4 / cplxblur=20.0 / qblur=0.5 / vbv_maxrate=300000 / vbv_bufsize=300000 / nal_hrd=none / filler=0 / ip_ratio=1.10 / aq=1:0.50
Language : Serbian
Default : Yes
Forced : No
Color range : Limited
Color primaries : BT.709
Transfer characteristics : BT.709
Matrix coefficients : BT.709

Audio
ID : 2
Format : E-AC-3
Format/Info : Enhanced AC-3
Commercial name : Dolby Digital Plus
Codec ID : A_EAC3
Duration : 1 h 48 min
Bit rate mode : Constant
Bit rate : 256 kb/s
Channel(s) : 6 channels
Channel layout : L R C LFE Ls Rs
Sampling rate : 48.0 kHz
Frame rate : 31.250 FPS (1536 SPF)
Compression mode : Lossy
Delay relative to video : -5 ms
Stream size : 498 MiB (24%)
Title : Jesen samuraja (2016)
Language : Serbian
Service kind : Complete Main
Default : Yes
Forced : No

epYscVA.png

Hidden content
You need to react to this post in order to see this content.
zbNKcak.jpg

Hidden content
You need to react to this post in order to see this content.
3Rw7n8H.png

FoVJE1x.jpg
 
Top