Šta je novo?

Je li jasno prijatelju? aka Is It Clear, My Friend? (2000)

MODERATOR
Učlanjen(a)
10.10.2009
Poruka
13.322
Je li jasno prijatelju (2000) DVDrip DD5.1 x264 by Wolf
(MKV)

IHE7MLA.jpg


Kod:
 https://www.imdb.com/title/tt0250445/

General
Unique ID : 8975671384416683577056072867534849629 (0x6C0A6C40D6C7969216549E47437C65D)
Complete name : Je li jasno prijatelju (2000) DVDrip E-AC3 x264 by Wolf.mkv
Format : Matroska
Format version : Version 4 / Version 2
File size : 1.16 GiB
Duration : 1 h 34 min
Overall bit rate : 1 758 kb/s
Encoded date : UTC 2018-09-22 18:47:48 / UTC 2018-09-22T16:08:36Z
Writing application : mkvmerge v26.0.0 ('In The Game') 64-bit
Writing library : libebml v1.3.6 + libmatroska v1.4.9 / Lavf57.7.2

Video
ID : 1
Format : AVC
Format/Info : Advanced Video Codec
Format profile : High 10@L4.1
Format settings : CABAC / 5 Ref Frames
Format settings, CABAC : Yes
Format settings, ReFrames : 5 frames
Codec ID : V_MPEG4/ISO/AVC
Duration : 1 h 34 min
Bit rate : 1 500 kb/s
Width : 718 pixels
Height : 412 pixels
Display aspect ratio : 1.85:1
Original display aspect rat : 1.85:1
Frame rate mode : Constant
Frame rate : 25.000 FPS
Color space : YUV
Chroma subsampling : 4:2:0
Bit depth : 10 bits
Scan type : Progressive
Bits/(Pixel*Frame) : 0.203
Stream size : 993 MiB (83%)
Title : Je li jasno prijatelju (2000)
Writing library : x264 core 155 r2901 7d0ff22
Encoding settings : cabac=1 / ref=5 / deblock=1:-1:-1 / analyse=0x3:0x113 / me=hex / subme=8 / psy=1 / psy_rd=1.00:0.15 / mixed_ref=1 / me_range=16 / chroma_me=1 / trellis=2 / 8x8dct=1 / cqm=0 / deadzone=21,11 / fast_pskip=1 / chroma_qp_offset=-3 / threads=6 / lookahead_threads=1 / sliced_threads=0 / nr=0 / decimate=1 / interlaced=0 / bluray_compat=0 / constrained_intra=0 / bframes=3 / b_pyramid=2 / b_adapt=1 / b_bias=0 / direct=3 / weightb=1 / open_gop=0 / weightp=2 / keyint=250 / keyint_min=25 / scenecut=40 / intra_refresh=0 / rc_lookahead=50 / rc=2pass / mbtree=1 / bitrate=1500 / ratetol=1.0 / qcomp=0.60 / qpmin=0 / qpmax=81 / qpstep=4 / cplxblur=20.0 / qblur=0.5 / vbv_maxrate=150000 / vbv_bufsize=187500 / nal_hrd=none / filler=0 / ip_ratio=1.40 / aq=1:1.00
Language : Croatian
Default : Yes
Forced : No
Color range : Limited
Color primaries : BT.601 PAL
Transfer characteristics : BT.709
Matrix coefficients : BT.601
Statistics Tags Issue : mkvmerge v26.0.0 ('In The Game') 64-bit 2018-09-22 18:47:48 / mkvmerge v26.0.0 ('In The Game') 64-bit 2018-09-22 18:47:48 / UTC 2018-09-22T16:08:36Z
FromStats_BitRate : 1500004
FromStats_Duration : 01:34:38.000000000
FromStats_FrameCount : 141950
FromStats_StreamSize : 1064627964

Audio
ID : 2
Format : E-AC-3
Format/Info : Enhanced Audio Coding 3
Codec ID : A_EAC3
Duration : 1 h 34 min
Bit rate mode : Constant
Bit rate : 256 kb/s
Channel(s) : 6 channels
Channel positions : Front: L C R, Side: L R, LFE
Sampling rate : 48.0 kHz
Frame rate : 187.500 FPS (256 SPF)
Compression mode : Lossy
Delay relative to video : -21 ms
Stream size : 173 MiB (15%)
Title : Je li jasno prijatelju (2000)
Language : Croatian
Service kind : Complete Main
Default : Yes
Forced : No
Statistics Tags Issue : mkvmerge v26.0.0 ('In The Game') 64-bit 2018-09-22 18:47:48 / mkvmerge v26.0.0 ('In The Game') 64-bit 2018-09-22 18:47:48 / UTC 2018-09-22T16:08:36Z
FromStats_BitRate : 256000
FromStats_Duration : 01:34:37.984000000
FromStats_FrameCount : 177437
FromStats_StreamSize : 181695488

epYscVA.png

Hidden content
You need to react to this post in order to see this content.
zbNKcak.jpg

Hidden content
You need to react to this post in order to see this content.
fE5rAKt.png

piP4x43.jpg
 
Poslednja izmena:
Top