Šta je novo?

Jacob (2011)

  • Začetnik teme CyberWarez
  • Datum pokretanja
CyberWarez

CyberWarez

Član
Učlanjen(a)
09.05.2011
Poruka
7.549
Jacob (2011) 1080p BluRay x264-ROVERS
File Size: 6.55 GiB





General
Complete name : jacob.2011.1080p.bluray.x264-rovers.mkv
Format : Matroska
Format version : Version 2
File size : 6.55 GiB
Duration : 1h 31mn
Overall bit rate : 10.2 Mbps
Writing application : mkvmerge v4.1.1 ('Bouncin' Back') built on Jul 3 2010 22:54:08
Writing library : libebml v1.0.0 + libmatroska v1.0

Video
ID : 1
Format : AVC
Format/Info : Advanced Video Codec
Format profile : [email protected]
Format settings, CABAC : Yes
Format settings, ReFrames : 5 frames
Codec ID : V_MPEG4/ISO/AVC
Duration : 1h 31mn
Bit rate : 8 700 Kbps
Width : 1 920 pixels
Height : 816 pixels
Display aspect ratio : 2.35:1
Frame rate mode : Constant
Frame rate : 23.976 fps
Color space : YUV
Chroma subsampling : 4:2:0
Bit depth : 8 bits
Scan type : Progressive
Bits/(Pixel*Frame) : 0.232
Stream size : 5.45 GiB (83%)
Writing library : x264 core 130 r2273 b3065e6
Language : English
Default : Yes
Forced : No

Audio
ID : 2
Format : DTS
Format/Info : Digital Theater Systems
Mode : 16
Format settings, Endianness : Big
Codec ID : A_DTS
Duration : 1h 31mn
Bit rate mode : Constant
Bit rate : 1 509 Kbps
Channel(s) : 6 channels
Channel positions : Front: L C R, Side: L R, LFE
Sampling rate : 48.0 KHz
Bit depth : 24 bits
Compression mode : Lossy
Stream size : 992 MiB (15%)
Title : DTS
Language : English
Default : Yes
Forced : No
Kod:
http://www.imdb.com/title/tt1801063/



DOWNLOAD:
Kod:
http://uploaded.net/file/6ekom2zn/Jacob.2011.1080p.ROVERS.part1.rar
http://uploaded.net/file/7dlbbvcj/Jacob.2011.1080p.ROVERS.part2.rar
http://uploaded.net/file/22qf44id/Jacob.2011.1080p.ROVERS.part3.rar
http://uploaded.net/file/z7zcpvyo/Jacob.2011.1080p.ROVERS.part4.rar
http://uploaded.net/file/mc54f4pu/Jacob.2011.1080p.ROVERS.part5.rar
http://uploaded.net/file/oos44i9j/Jacob.2011.1080p.ROVERS.part6.rar
http://uploaded.net/file/sz637wus/Jacob.2011.1080p.ROVERS.part7.rar
 
Poslednja izmena od urednika:
Top