Šta je novo?

Jackass Presents Bad Grandpa (2013)

  • Začetnik teme CyberWarez
  • Datum pokretanja
CyberWarez

CyberWarez

Član
Učlanjen(a)
09.05.2011
Poruka
7.549
=
Jackass Presents Bad Grandpa (2013) 720p Bluray DTS x264-STHD
File Size: 3.04 GiB

=




General
Complete name : Jackass_Presents_Bad_Grandpa_2013_720p_Bluray_DTS_x264_STHD.mkv
Format : Matroska
Format version : Version 4 / Version 2
File size : 3.04 GiB
Duration : 1h 42mn
Overall bit rate : 4 254 Kbps
Movie name : Bad Grandpa 2013 720p Encoder Worldwide7477
Encoded date : UTC 2014-01-06 16:41:00
Writing application : mkvmerge v6.6.0 ('The Edge Of The In Between') built on Dec 1 2013 17:55:00
Writing library : libebml v1.3.0 + libmatroska v1.4.1

Video
ID : 1
Format : AVC
Format/Info : Advanced Video Codec
Format profile : [email protected]
Format settings, CABAC : Yes
Format settings, ReFrames : 5 frames
Codec ID : V_MPEG4/ISO/AVC
Duration : 1h 42mn
Bit rate : 3 499 Kbps
Width : 1 280 pixels
Height : 720 pixels
Display aspect ratio : 16:9
Frame rate mode : Constant
Frame rate : 23.976 fps
Color space : YUV
Chroma subsampling : 4:2:0
Bit depth : 8 bits
Scan type : Progressive
Bits/(Pixel*Frame) : 0.158
Stream size : 2.44 GiB (80%)
Title : Bad Grandpa 2013 720p Bluray DTS x264 STHD
Writing library : x264 core 138 r2358 9e941d1
Language : English
Default : Yes
Forced : No

Audio
ID : 2
Format : DTS
Format/Info : Digital Theater Systems
Mode : 16
Format settings, Endianness : Big
Codec ID : A_DTS
Duration : 1h 42mn
Bit rate mode : Constant
Bit rate : 755 Kbps
Channel count : 6 channels
Channel positions : Front: L C R, Side: L R, LFE
Sampling rate : 48.0 KHz
Bit depth : 24 bits
Compression mode : Lossy
Stream size : 553 MiB (18%)
Title : Worldwide7477 (DTS)
Language : English
Default : Yes
Forced : No

PLOT: 86-year-old Irving Zisman takes a trip from Nebraska to North Carolina to take his 8 year-old grandson, Billy, back to his real father.
Kod:
[url]http://www.imdb.com/title/tt3063516/[/url]








DOWNLOAD:
Kod:
[url]http://uploaded.net/file/oz8myx2m/BaDGRanDpA.720p.STHD.part1.rar[/url]
[url]http://uploaded.net/file/ifw853pg/BaDGRanDpA.720p.STHD.part2.rar[/url]
[url]http://uploaded.net/file/97xhl60z/BaDGRanDpA.720p.STHD.part3.rar[/url]
[url]http://uploaded.net/file/6olgb17a/BaDGRanDpA.720p.STHD.part4.rar[/url]

[url]http://rapidgator.net/file/3369df7d57bf07260dfe18d9326a17f0/BaDGRanDpA.720p.STHD.part1.rar.html[/url]
[url]http://rapidgator.net/file/6ec243be53ed420aebca7251204c2513/BaDGRanDpA.720p.STHD.part2.rar.html[/url]
[url]http://rapidgator.net/file/99bc40edad7f14f8f6b2cc99997a20f7/BaDGRanDpA.720p.STHD.part3.rar.html[/url]
[url]http://rapidgator.net/file/cd45fba99d5679c67f994a101b82c51a/BaDGRanDpA.720p.STHD.part4.rar.html[/url]

[url]http://ryushare.com/gd961bxf9q1g/BaDGRanDpA.720p.STHD.part1.rar[/url]
[url]http://ryushare.com/fi23hjebb4ku/BaDGRanDpA.720p.STHD.part2.rar[/url]
[url]http://ryushare.com/q9yibv6om1hk/BaDGRanDpA.720p.STHD.part3.rar[/url]
[url]http://ryushare.com/bhtch03lg3ow/BaDGRanDpA.720p.STHD.part4.rar[/url]

[url]http://lumfile.com/x8e4bjipyvio/BaDGRanDpA.720p.STHD.part1.rar.html[/url]
[url]http://lumfile.com/quvupcazz3gt/BaDGRanDpA.720p.STHD.part2.rar.html[/url]
[url]http://lumfile.com/ic4vx75gldqb/BaDGRanDpA.720p.STHD.part3.rar.html[/url]
[url]http://lumfile.com/1z6cbcgjoupi/BaDGRanDpA.720p.STHD.part4.rar.html[/url]
DOWNLOAD SINGL LINKS:
Kod:
[url]http://uploaded.net/file/qgzftmoj/BaDGRanDpA.720p.SingL.rar[/url]
[url]http://ryushare.com/55955d1743c2/BaDGRanDpA.720p.SingL.rar[/url]
[url]http://lumfile.com/m69ypfesbr6c/BaDGRanDpA.720p.SingL.rar.html[/url]
 
M

maksa6

Član
Učlanjen(a)
07.07.2009
Poruka
787
Jackass Presents: Bad Grandpa (2013) 720p BluRay x264 YIFY



:info:
IMDB

Kod:
[url]http://www.imdb.com/title/tt3063516/?ref_=nv_sr_1[/url]
:screen:



:download:

Kod:
[url]http://turbobit.net/e9fhn1lfcq39.html[/url]
 
Top