Šta je novo?

Jack the Giant Killer (2013)

  • Začetnik teme CyberWarez
  • Datum pokretanja
CyberWarez

CyberWarez

Član
Učlanjen(a)
09.05.2011
Poruka
7.549
Jack the Giant Killer (2013) 1080p BluRay x264-VETO
File Size: 6.55 GiB





General
Complete name : veto-jackthegiantkiller-1080p.mkv
Format : Matroska
Format version : Version 2
File size : 6.55 GiB
Duration : 1h 27mn
Overall bit rate : 10.8 Mbps
Writing application : mkvmerge v4.1.1 ('Bouncin' Back') built on Jul 3 2010 22:54:08
Writing library : libebml v1.0.0 + libmatroska v1.0

Video
ID : 1
Format : AVC
Format/Info : Advanced Video Codec
Format profile : [email protected]
Format settings, CABAC : Yes
Format settings, ReFrames : 4 frames
Codec ID : V_MPEG4/ISO/AVC
Duration : 1h 27mn
Bit rate : 9 248 Kbps
Width : 1 920 pixels
Height : 1 080 pixels
Display aspect ratio : 16:9
Frame rate mode : Constant
Frame rate : 23.976 fps
Color space : YUV
Chroma subsampling : 4:2:0
Bit depth : 8 bits
Scan type : Progressive
Bits/(Pixel*Frame) : 0.186
Stream size : 5.50 GiB (84%)
Writing library : x264 core 130 r2273 b3065e6
Language : English
Default : Yes
Forced : No

Audio
ID : 2
Format : DTS
Format/Info : Digital Theater Systems
Mode : 16
Format settings, Endianness : Big
Codec ID : A_DTS
Duration : 1h 27mn
Bit rate mode : Constant
Bit rate : 1 509 Kbps
Channel(s) : 6 channels
Channel positions : Front: L C R, Side: L R, LFE
Sampling rate : 48.0 KHz
Bit depth : 16 bits
Compression mode : Lossy
Stream size : 941 MiB (14%)
Language : English
Default : Yes
Forced : No
Kod:
http://www.imdb.com/title/tt2552498/







DOWNLOAD:
Kod:
http://www.netload.in/dateiuoAgPsbeae/Jack.the.Giant.Killer.2013.1080p.VETO.part1.rar.htm
http://www.netload.in/dateiJQMBmHMbwV/Jack.the.Giant.Killer.2013.1080p.VETO.part2.rar.htm
http://www.netload.in/dateiHyE7JpdgoR/Jack.the.Giant.Killer.2013.1080p.VETO.part3.rar.htm
http://www.netload.in/dateiK2RxJC7NeY/Jack.the.Giant.Killer.2013.1080p.VETO.part4.rar.htm
http://www.netload.in/dateiBSAzMQMDcd/Jack.the.Giant.Killer.2013.1080p.VETO.part5.rar.htm
http://www.netload.in/dateiRh7fcnLiGf/Jack.the.Giant.Killer.2013.1080p.VETO.part6.rar.htm
http://www.netload.in/dateiivSZwrOs8r/Jack.the.Giant.Killer.2013.1080p.VETO.part7.rar.htm
 
Poslednja izmena od urednika:
Top