Šta je novo?

Jack Ryan Shadow Recruit (2014)

Član
Učlanjen(a)
09.05.2011
Poruka
7.549
===============================
Jack Ryan Shadow Recruit (2014) CAM AAC x264 SSDD
File Size: 700 MiB

===============================

jack.jpg


Title: Jack Ryan: Shadow One
Year: 2013
Genre: Action, Drama, Thriller
Rating: N/A (N/A votes)
Runtime: N/A
Director: Kenneth Branagh
Cast: Chris Pine, Kevin Costner, Keira Knightley, Kenneth Branagh
Plot:
Kod:
Jack Ryan, as a young covert CIA analyst, uncovers a Russian plot to crash the U.S. economy with a terrorist attack.

General
Complete name : Jack Ryan Shadow Recruit 2014 CAM AAC x264-SSDD.mp4
Format : MPEG-4
Format profile : Base Media
Codec ID : isom
File size : 700 MiB
Duration : 1h 33mn
Overall bit rate mode : Variable
Overall bit rate : 1 050 Kbps

Video
ID : 1
Format : AVC
Format/Info : Advanced Video Codec
Format profile : [email protected]
Format settings, CABAC : Yes
Format settings, ReFrames : 4 frames
Codec ID : avc1
Codec ID/Info : Advanced Video Coding
Duration : 1h 33mn
Bit rate : 966 Kbps
Maximum bit rate : 2 355 Kbps
Width : 624 pixels
Height : 342 pixels
Display aspect ratio : 1.85:1
Frame rate mode : Constant
Frame rate : 24.876 fps
Color space : YUV
Chroma subsampling : 4:2:0
Bit depth : 8 bits
Scan type : Progressive
Bits/(Pixel*Frame) : 0.182
Stream size : 644 MiB (92%)
Writing library : x264 core 140 r2377 1ca7bb9

Audio
ID : 2
Format : AAC
Format/Info : Advanced Audio Codec
Format profile : LC
Codec ID : 40
Duration : 1h 33mn
Bit rate mode : Variable
Bit rate : 80.0 Kbps
Maximum bit rate : 85.8 Kbps
Channel count : 2 channels
Channel positions : Front: L R
Sampling rate : 44.1 KHz
Compression mode : Lossy
Stream size : 53.3 MiB (8%)

Imdb Url:
Kod:
[url]http://www.imdb.com/title/tt1205537/[/url]
Movie Trailer:
Kod:
[media=youtube]QdUbLjpqteY[/media]


jack.png



DOWNLOAD SINGL LINKS:
Kod:
[url]http://lumfile.com/cgbq7t0i6tig/ShAD0wReCRu1T.CAM.rar.html[/url]
 
Poslednja izmena od urednika:
Član
Učlanjen(a)
07.07.2009
Poruka
787
Jack Ryan Shadow Recruit (2014) 720p BluRay x264 YIFY

Jack-Ryan-Shadow-Recruit-2014.jpg


:info:
IMDB

Kod:
http://www.imdb.com/title/tt1205537/?ref_=fn_al_tt_1

:screen:

screenshot_334.png


:download:

Kod:
http://turbobit.net/wumc5e1puw65.html
 
Top