Šta je novo?

Jack Reacher (2012)

  • Začetnik teme CyberWarez
  • Datum pokretanja
CyberWarez

CyberWarez

Član
Učlanjen(a)
09.05.2011
Poruka
7.549
Jack Reacher (2012) 720p BluRay x264 AMiABLE
File Size: 5.46 GiB




General
Complete name : Jack.Reacher.2012.720p.BluRay.X264-AMIABLE.mkv
Format : Matroska
Format version : Version 2
File size : 5.46 GiB
Duration : 2h 10mn
Overall bit rate : 5 999 Kbps
Writing application : x264.exe
Writing library : mkv2rls v1.4 (date: 2011 mar 29)

Video
ID : 1
Format : AVC
Format/Info : Advanced Video Codec
Format profile : [email protected]
Format settings, CABAC : Yes
Format settings, ReFrames : 5 frames
Codec ID : V_MPEG4/ISO/AVC
Duration : 2h 10mn
Bit rate : 4 489 Kbps
Width : 1 280 pixels
Height : 544 pixels
Display aspect ratio : 2.35:1
Frame rate mode : Constant
Frame rate : 23.976 fps
Color space : YUV
Chroma subsampling : 4:2:0
Bit depth : 8 bits
Scan type : Progressive
Bits/(Pixel*Frame) : 0.269
Stream size : 3.98 GiB (73%)
Writing library : x264 core 130 r2273 b3065e6
Language : English
Default : Yes
Forced : No

Audio
ID : 2
Format : DTS
Format/Info : Digital Theater Systems
Mode : 16
Format settings, Endianness : Big
Codec ID : A_DTS
Duration : 2h 10mn
Bit rate mode : Constant
Bit rate : 1 509 Kbps
Channel(s) : 6 channels
Channel positions : Front: L C R, Side: L R, LFE
Sampling rate : 48.0 KHz
Bit depth : 24 bits
Compression mode : Lossy
Stream size : 1.37 GiB (25%)
Language : English
Default : Yes
Forced : No
Kod:
http://www.imdb.com/title/tt0790724/



DOWNLOAD:
Kod:
http://netload.in/dateik3qB0eqoL4/JR.720p.AMiABLE.part1.rar.htm
http://netload.in/dateiQ6pdz7cQfl/JR.720p.AMiABLE.part2.rar.htm
http://netload.in/dateikRd744xfHh/JR.720p.AMiABLE.part3.rar.htm
http://netload.in/dateiYEUkrdm1KJ/JR.720p.AMiABLE.part4.rar.htm
http://netload.in/dateiMnXQ6tYZMo/JR.720p.AMiABLE.part5.rar.htm
http://netload.in/dateivlLZ1PZzh0/JR.720p.AMiABLE.part6.rar.htm
 
Poslednja izmena od urednika:
Top