Šta je novo?

Jack and Diane (2012)

  • Začetnik teme CyberWarez
  • Datum pokretanja
CyberWarez

CyberWarez

Član
Učlanjen(a)
09.05.2011
Poruka
7.549
Jack and Diane (2012) LIMITED 1080p BluRay x264 GECKOS
File Size: 7,65 GiB




General
Complete name : jack.and.diane.2012.limited.1080p.bluray.x264-geckos.mkv
Format : Matroska
Format version : Version 2
File size : 7.65 GiB
Duration : 1h 45mn
Overall bit rate : 10.4 Mbps
Writing application : mkvmerge v4.1.1 ('Bouncin' Back') built on Jul 3 2010 22:54:08
Writing library : libebml v1.0.0 + libmatroska v1.0

Video
ID : 1
Format : AVC
Format/Info : Advanced Video Codec
Format profile : [email protected]
Format settings, CABAC : Yes
Format settings, ReFrames : 4 frames
Codec ID : V_MPEG4/ISO/AVC
Duration : 1h 45mn
Bit rate : 8 878 Kbps
Width : 1 920 pixels
Height : 1 040 pixels
Display aspect ratio : 1.85:1
Frame rate mode : Constant
Frame rate : 23.976 fps
Color space : YUV
Chroma subsampling : 4:2:0
Bit depth : 8 bits
Scan type : Progressive
Bits/(Pixel*Frame) : 0.185
Stream size : 6.38 GiB (83%)
Writing library : x264 core 129 r2230 1cffe9f
Language : English
Default : Yes
Forced : No

Audio
ID : 2
Format : DTS
Format/Info : Digital Theater Systems
Mode : 16
Format settings, Endianness : Big
Codec ID : A_DTS
Duration : 1h 45mn
Bit rate mode : Constant
Bit rate : 1 509 Kbps
Channel(s) : 6 channels
Channel positions : Front: L C R, Side: L R, LFE
Sampling rate : 48.0 KHz
Bit depth : 24 bits
Compression mode : Lossy
Stream size : 1.11 GiB (15%)
Title : DTS
Language : English
Default : Yes
Forced : No
Kod:
http://www.imdb.com/title/tt0850677/



DOWNLOAD:
Kod:
http://uploaded.net/file/d5keiqit/Jack.and.Diane.1080p.BluRay.GECKOS.part1.rar
http://uploaded.net/file/xvxrpmxq/Jack.and.Diane.1080p.BluRay.GECKOS.part2.rar
http://uploaded.net/file/jbn6sena/Jack.and.Diane.1080p.BluRay.GECKOS.part3.rar
http://uploaded.net/file/akto1te8/Jack.and.Diane.1080p.BluRay.GECKOS.part4.rar
http://uploaded.net/file/0u2r9t17/Jack.and.Diane.1080p.BluRay.GECKOS.part5.rar
http://uploaded.net/file/3dez43iu/Jack.and.Diane.1080p.BluRay.GECKOS.part6.rar
http://uploaded.net/file/6cukztka/Jack.and.Diane.1080p.BluRay.GECKOS.part7.rar
http://uploaded.net/file/hppl15cx/Jack.and.Diane.1080p.BluRay.GECKOS.part8.rar
 
Poslednja izmena od urednika:
Top