Šta je novo?
SerbianForum

This is a sample guest message. Register a free account today to become a member! Once signed in, you'll be able to participate on this site by adding your own topics and posts, as well as connect with other members through your own private inbox!

Ivkova slava (2005)

  • Začetnik teme maja_jevtic
  • Datum pokretanja
maja_jevtic

maja_jevtic

Urednik
#1
Ivkova slava (2005)


screen.png



Ivkovaslava2005631e3.png




info.png




Ivko je ugledni niški zanatlija. Za koji dan ce njegova slava, kojoj se uvek iznova raduje - lep prolecni svetac, Sveti Ðorde, ili prosto Ðurdevdan. Tog jutra vrata njegove kuce se širom otvaraju zvanim i nezvanim (na slavu se i ne zove). Ceo dan docekuje, bogato poslužuje i ispraca desetine uglednih gostiju. Predvece, kad on i njegova Paraskeva padnu s nogu, stižu, kako je to red, njegovi nerazdvojni prijatelji - Kalca, poznati lovac, u cije lovacke fantazije niko ne veruje, Kurjak, nazvan po enormnom apetitu, i Smuk, koji može beskrajno da pije, a da ostane na nogama. Tu je i jedan momak o kome niko ništa ne zna. To je Svetislav, putujuci glumac, koji je došao nezvan, sve iduci za lepom Mariolom, koja pomaže domacici. Ta cetiri coveka zasednu u kucu jednu noc, pa sutra, kad dolaze gosti ranga vladike, predsednika opštine i visokih vojnih lica, predu u dvorište i tu sebi organizuju slavlje koje pred ocima celog grada traje citav taj dan, sledecu noc, pa i ceo treci dan. Pisac sve to vešto pretvara u veliku parabolu o našem mentalitetu.

Treceg dana Ivko je prinuden da od predsednika opštine zatraži zaštitu. Ovaj ostavi Ivka u nekoj kafani i ode u pratnji pandura da mu oslobodi kucu. Predsednik nastupi oštro prema kabadahijama, ali se ispostavi da je i on "duša za društvo". Ivku dosadi cekanje i uputi se kuci. Tamo stotine ljudi, muzikanata i coceka pritislo njegovu kucu. Markovdan je vec, Kurjakova slava. Predsednik teši Ivka, rešice njegov slucaj, samo nek ode preko puta da isprosi Mariolu za Svetislava.

Pojavljuje se i sam kralj Milan. Sve se utišava i kralj moli milost za Ivka. Vracamo se u vreme pocetka price. Ta slava je za Ivka "bilo, ne ponovilo se". Ipak, pisac u završnoj sceni, nastojeci da izgladi stvar sa svojim junacima, kaže da su iz te slave proistekla dva braka (Svetislava i Mariole, Kurjaka i Sike) i troje dece. Skoro ih rasentimentališe pricom da ce "Ivkova slava" spasti od zaborava neke lepe dane u Nišu, inace ce ih "Nišava odneti u Moravu, Morava u Dunav negde bestraga, i ti se dani više nece vratiti, kao ni mladost naša".

Žanr: Komedija

Režiser: Zdravko Sotra

Glavne uloge: Zoran Cvijanovic, Dragan Bjelogrlic, Dragan Bjelogrlic




cz8ovxm.png



screen.png



IvkovaSlava.avi42d46.jpg





Download.png



You need to like this in order to view this content.

 
Zoran_

Zoran_

VIP
#2
Ivkova slava (2005)


ad0SnMq.png


imdb6.jpg


Kod:
http://www.imdb.com/title/tt0402493/
Posle više pozorišnih adaptacija komedija Stevana Sremca, Ivkova slava doživljava prvu ekranizaciju. Jedan od najambicioznijih projekata u zemlji poslednjih godina, film Ivkova slava predstavlja kultni film naše Srbije, pogotovu grada Niša, gde se radnja i dogodila. Radnja filma se dogada na slavljenickoj krsnoj slavi Sveti Djordje Djurdjevdan u kuci gazda Ivka. Pored pristojnih gostiju došli su i oni drugi nezgodni gosti, koje je gazda Ivko negde i nekada nekom prilikom zadužio svojim ponašanjem, pa mu sada vracaju istom merom. Kurjak, Kalca i Smuk nikako ne izlaze iz doma gazda Ivka tri dana i tri noci tako da Ivko poziva predsednika opštine u pomoc, ali tek tada pocinje zaplet...Stara Srbija iz 19. veka je pred nama, zaplet i urnebesna komedija se završavaju srecno svadbom.

qsDneYW.gif


zcQnzmF.jpg


downloade0cdd.gif


Ivkova slava (2005) DVDRip avi

filesflesh2.jpg


You need to like this in order to view this content.
 
Wolf 13

Wolf 13

Moderator
#3
Ivkova slava (2005) DVDrip E-AC3 x264 by Wolf
(MKV)

icDoyTh.jpg


Kod:
 https://www.imdb.com/title/tt0402493/
General
Unique ID : 125895242165403316954783208702562217953 (0x5EB68AAB297212F1819BF973685F2FE1)
Complete name : Ivkova slava (2005) DVDrip E-AC3 x264 by Wolf.mkv
Format : Matroska
Format version : Version 4 / Version 2
File size : 1.31 GiB
Duration : 1 h 46 min
Overall bit rate : 1 757 kb/s
Encoded date : UTC 2018-09-26 10:28:59 / UTC 2018-09-26T07:49:35Z
Writing application : mkvmerge v26.0.0 ('In The Game') 64-bit
Writing library : libebml v1.3.6 + libmatroska v1.4.9 / Lavf57.7.2

Video
ID : 1
Format : AVC
Format/Info : Advanced Video Codec
Format profile : High 10@L4.1
Format settings : CABAC / 5 Ref Frames
Format settings, CABAC : Yes
Format settings, ReFrames : 5 frames
Codec ID : V_MPEG4/ISO/AVC
Duration : 1 h 46 min
Bit rate : 1 500 kb/s
Width : 716 pixels
Height : 416 pixels
Display aspect ratio : 1.85:1
Original display aspect rat : 1.85:1
Frame rate mode : Constant
Frame rate : 25.000 FPS
Color space : YUV
Chroma subsampling : 4:2:0
Bit depth : 10 bits
Scan type : Progressive
Bits/(Pixel*Frame) : 0.201
Stream size : 1.09 GiB (83%)
Title : Ivkova slava (2005)
Writing library : x264 core 155 r2901 7d0ff22
Encoding settings : cabac=1 / ref=5 / deblock=1:-1:-1 / analyse=0x3:0x113 / me=hex / subme=8 / psy=1 / psy_rd=1.00:0.15 / mixed_ref=1 / me_range=16 / chroma_me=1 / trellis=2 / 8x8dct=1 / cqm=0 / deadzone=21,11 / fast_pskip=1 / chroma_qp_offset=-3 / threads=6 / lookahead_threads=1 / sliced_threads=0 / nr=0 / decimate=1 / interlaced=0 / bluray_compat=0 / constrained_intra=0 / bframes=3 / b_pyramid=2 / b_adapt=1 / b_bias=0 / direct=3 / weightb=1 / open_gop=0 / weightp=2 / keyint=250 / keyint_min=25 / scenecut=40 / intra_refresh=0 / rc_lookahead=50 / rc=2pass / mbtree=1 / bitrate=1500 / ratetol=1.0 / qcomp=0.60 / qpmin=0 / qpmax=81 / qpstep=4 / cplxblur=20.0 / qblur=0.5 / vbv_maxrate=150000 / vbv_bufsize=187500 / nal_hrd=none / filler=0 / ip_ratio=1.40 / aq=1:1.00
Language : Serbian
Default : Yes
Forced : No
Color range : Limited
Color primaries : BT.601 PAL
Transfer characteristics : BT.709
Matrix coefficients : BT.601
Statistics Tags Issue : mkvmerge v26.0.0 ('In The Game') 64-bit 2018-09-26 10:28:59 / mkvmerge v26.0.0 ('In The Game') 64-bit 2018-09-26 10:28:59 / UTC 2018-09-26T07:49:35Z
FromStats_BitRate : 1499661
FromStats_Duration : 01:46:39.280000000
FromStats_FrameCount : 159982
FromStats_StreamSize : 1199593893

Audio
ID : 2
Format : E-AC-3
Format/Info : Enhanced Audio Coding 3
Codec ID : A_EAC3
Duration : 1 h 46 min
Bit rate mode : Constant
Bit rate : 256 kb/s
Channel(s) : 6 channels
Channel positions : Front: L C R, Side: L R, LFE
Sampling rate : 48.0 kHz
Frame rate : 187.500 FPS (256 SPF)
Compression mode : Lossy
Delay relative to video : -21 ms
Stream size : 195 MiB (15%)
Title : Ivkova slava (2005)
Language : Serbian
Service kind : Complete Main
Default : Yes
Forced : No
Statistics Tags Issue : mkvmerge v26.0.0 ('In The Game') 64-bit 2018-09-26 10:28:59 / mkvmerge v26.0.0 ('In The Game') 64-bit 2018-09-26 10:28:59 / UTC 2018-09-26T07:49:35Z
FromStats_BitRate : 256000
FromStats_Duration : 01:46:39.232000000
FromStats_FrameCount : 199976
FromStats_StreamSize : 204775424
k2aTdzy.png

You need to like this in order to view this content.
mifFnBC.png

WYIcPGq.jpg
 
Poslednja izmena:

Top