Šta je novo?

Iron Man And Hulk Heroes United (2013)

Član
Učlanjen(a)
02.03.2013
Poruka
3.108
Iron Man And Hulk Heroes United 2013 BDRiP AC3-5.1 XviD-AXED


94423215722972417914.jpg



File: Iron Man And Hulk Heroes United 2013 BDRiP AC3-5.1 XviD-AXED.avi
Size: 1049150162 bytes (1000.55 MiB), duration: 01:11:44, avg.bitrate: 1950 kb/s
Audio: ac3, 48000 Hz, 5:1, 448 kb/s
Video: mpeg4, yuv420p, 720x400, 23.98 fps(r)


Iron_Man_And_Hulk_Heroes_United_2013_BDRi_P_AC3_5.jpg



If U Like My Post Willing To Buy Premium For High Speed Resumable downloads Pls BuY Premium From This Links


Kod:
http://lumfile.com/q8sdq41u6c2j/Iron_Man_And_Hulk_Heroes_United_2013_BDRiP_AC3-5.1_XviD-AXED.avi.html


Kod:
http://rapidgator.net/file/dda71e339c360aec991e96e151e800f9/Iron_Man_And_Hulk_Heroes_United_2013_BDRiP_AC3-5.1_XviD-AXED.avi.part1.rar.html
http://rapidgator.net/file/edcd68ae1f6bd0ec493fc7fd5779f6ae/Iron_Man_And_Hulk_Heroes_United_2013_BDRiP_AC3-5.1_XviD-AXED.avi.part2.rar.html


Kod:
http://k2s.cc/file/5293364a641b1/Iron_Man_And_Hulk_Heroes_United_2013_BDRiP_AC3-5.1_XviD-AXED.avi.part1.rar
http://k2s.cc/file/5293363e298ba/Iron_Man_And_Hulk_Heroes_United_2013_BDRiP_AC3-5.1_XviD-AXED.avi.part2.rar


 
Učlanjen(a)
25.11.2013
Poruka
298
Iron Man And Hulk Heroes United (2013) 720p.BluRay - AXED





IMDB:
Kod:
http://www.imdb.com/title/tt3221698

PLOT INFO:
Iron Man and the Hulk team up in groundbreaking Marvel CG Animation.

Media Info:
General
Unique ID : 219013494131551184444338804650597475839 (0xA4C476F3C79B70 >>
09A57F1B0F28CE5FF)
Complete name : Iron.Man.And.Hulk-Heroes.United.2013.720p.BluRay.DTS-5.1. >>
264-AXED.mkv
Format : Matroska
Format version : Version 2
File size : 3.40 GiB
Duration : 1h 11mn
Overall bit rate : 6 794 Kbps
Encoded date : UTC 2013-11-25 18:27:56
Writing application : mkvmerge v4.0.0 ('The Stars were mine') built on Jun 6 2010 >>
16:18:42
Writing library : libebml v1.0.0 + libmatroska v1.0.0

Video
ID : 1
Format : AVC
Format/Info : Advanced Video Codec
Format profile : [email protected]
Format settings, CABAC : Yes
Format settings, ReFrames : 9 frames
Codec ID : V_MPEG4/ISO/AVC
Duration : 1h 11mn
Bit rate : 5 149 Kbps
Width : 1 280 pixels
Height : 720 pixels
Display aspect ratio : 16:9
Frame rate mode : Constant
Frame rate : 23.976 fps
Color space : YUV
Chroma subsampling : 4:2:0
Bit depth : 8 bits
Scan type : Progressive
Bits/(Pixel*Frame) : 0.233
Stream size : 2.58 GiB (76%)
Writing library : x264 core 68 r1195bm 5d75a9b
Encoding settings : cabac=1 / ref=9 / deblock=1:-1:-1 / analyse=0x3:0x113 / me=umh >>
/ subme=7 / psy_rd=0.0:2.0 / mixed_ref=1 / me_range=16 / chroma_me=1 / trellis=2 / 8x8dct=1 / cqm=0 / >>
deadzone=21,11 / chroma_qp_offset=-2 / threads=1 / thread_queue=1 / nr=0 / decimate=1 / mbaff=0 / >>
bframes=6 / b_pyramid=0 / b_adapt=1 / b_bias=0 / direct=1 / wpredb=1 / keyint=250 / keyint_min=25 / >>
scenecut=40 / rc=crf / crf=16.0 / qcomp=0.60 / qpmin=10 / qpmax=51 / qpstep=4 / ip_ratio=1.40 / >>
pb_ratio=1.30 / aq=2:1.00
Default : Yes
Forced : No

Audio
ID : 2
Format : DTS
Format/Info : Digital Theater Systems
Codec ID : A_DTS
Duration : 1h 11mn
Bit rate mode : Constant
Bit rate : 1 510 Kbps
Channel(s) : 6 channels
Channel positions : Front: L C R, Side: L R, LFE
Sampling rate : 48.0 KHz
Bit depth : 24 bits
Compression mode : Lossy
Stream size : 775 MiB (22%)
Default : Yes
Forced : No

SOURCE:
Retail RA Blu-Ray DISC


Kod:
http://uploaded.net/file/st2kawdb/Ir.MaAndHul.part4.rar
http://uploaded.net/file/of4bse0e/Ir.MaAndHul.part2.rar
http://uploaded.net/file/j1pi5c4o/Ir.MaAndHul.part1.rar
http://uploaded.net/file/8fyc67j5/Ir.MaAndHul.part3.rar
 
Top