Šta je novo?
Član
Učlanjen(a)
09.05.2011
Poruka
7.549
=
Imaginaerum (2012) 720p BluRay x264 MCHD
File Size: 4.37 GiB

=

imaginarium.jpg



General
Complete name : Imaginaerum.2012.720p.BluRay.x264.MCHD/Imaginaerum.2012.720p.BluRay.x264.MCHD.mkv
Format : Matroska
Format version : Version 2
File size : 4.37 GiB
Duration : 1h 25mn
Overall bit rate : 7 297 Kbps
Encoded date : UTC 2013-04-27 13:21:19
Writing application : mkvmerge v4.0.0 ('The Stars were mine') built on Jun 6 2010 16:18:42
Writing library : libebml v1.0.0 + libmatroska v1.0.0

Video
ID : 1
Format : AVC
Format/Info : Advanced Video Codec
Format profile : [email protected]
Format settings, CABAC : Yes
Format settings, ReFrames : 5 frames
Codec ID : V_MPEG4/ISO/AVC
Duration : 1h 25mn
Bit rate : 6 533 Kbps
Width : 1 280 pixels
Height : 544 pixels
Display aspect ratio : 2.35:1
Frame rate : 23.976 fps
Color space : YUV
Chroma subsampling : 4:2:0
Bit depth : 8 bits
Scan type : Progressive
Bits/(Pixel*Frame) : 0.391
Stream size : 3.83 GiB (88%)
Writing library : x264 core 130 r2273 b3065e6
Language : English
Default : No
Forced : No

Audio
ID : 2
Format : DTS
Format/Info : Digital Theater Systems
Codec ID : A_DTS
Duration : 1h 25mn
Bit rate mode : Constant
Bit rate : 754 Kbps
Channel(s) : 6 channels
Channel positions : Front: L C R, Side: L R, LFE
Sampling rate : 48.0 KHz
Bit depth : 24 bits
Compression mode : Lossy
Stream size : 463 MiB (10%)
Language : English
Default : Yes
Forced : No

Kod:
http://www.imdb.com/title/tt1959409/

imaginaerum2012720pblura.jpg



DOWNLOAD:
Kod:
http://www.netload.in/dateij7moMdRvJr/Imaginaerum.2012.720p.MCHD.part1.rar.htm
http://www.netload.in/dateiRuO2WyVg4P/Imaginaerum.2012.720p.MCHD.part2.rar.htm
http://www.netload.in/datei1NW3Q1GWRi/Imaginaerum.2012.720p.MCHD.part3.rar.htm
http://www.netload.in/dateiboX4CtQqjQ/Imaginaerum.2012.720p.MCHD.part4.rar.htm
http://www.netload.in/dateidTQSLtISVl/Imaginaerum.2012.720p.MCHD.part5.rar.htm

http://uploaded.net/file/tvoid94l/Imaginaerum.2012.720p.MCHD.part1.rar
http://uploaded.net/file/wvgufvid/Imaginaerum.2012.720p.MCHD.part2.rar
http://uploaded.net/file/rc3t2qen/Imaginaerum.2012.720p.MCHD.part3.rar
http://uploaded.net/file/nahlch37/Imaginaerum.2012.720p.MCHD.part4.rar
http://uploaded.net/file/ore3lyh4/Imaginaerum.2012.720p.MCHD.part5.rar
 
Poslednja izmena od urednika:
Top